Бесаме мучо (Роман Шмидт) [2005, документальный фильм, DVB]


Статистика раздачи [Обновить пиров]
Размер:  570 MB   |    Зарегистрирован:  8 месяцев 13 дней   |    Скачан:  0 раз

Полного источника не было: Никогда

 
   
 
 
 

[Цитировать]

Бесаме мучо
Дата/Год выпуска: 2005
Страна: Россия
Жанр: документальный фильм
Продолжительность: 00:27:35
Перевод: Не требуется
Русские субтитры: нет
Режиссер: Роман Шмидт
Телеканал: Ретро
Описание: Этот музыкальный фильм посвящен истории одной песни — «BESAME MUCHO» Консуэло Веласкес. Песня была написана в 1941 году и на сегодняшний день является самой популярной во всем мире.В фильме принимают участие современные исполнители разных жанров: Лолита Милявская, Николай Басков, Игорь Бутман, Виктор Зинчук и другие — а также известные танцевальные коллективы.
Доп. информация: Ведущие: Елена Ханга, Дана Борисова
Сэмпл: https://www.sendspace.com/file/12zzy3
качество: DVB
формат: MPG
Видео: MPEG2, 720x576 (4:3), 2639 Кбит/сек, 25,000 кадров/сек ,(0.255 bit/pixel)
Аудио: MP2, 192 Кбит/сек, 48,0 КГц, 2 канала

MediaInfo

Общее
Полное имя : C:\Users\Вадим\Desktop\Программы\РАЗДАЧИ ФАЙЛОВ\Бесаме мучо\Бесаме мучо.mpg
Формат : MPEG-PS
Размер файла : 570 Мбайт
Продолжительность : 27 м.
Режим общего битрейта : Переменный
Общий поток : 2888 Кбит/сек
Видео
Идентификатор : 224 (0xE0)
Формат : MPEG Video
Версия формата : Version 2
Профиль формата : Main@Main
Параметр BVOP формата : Да
Параметр матрицы формата : Выборочная
Параметр GOP формата : M=3, N=12
Структура изображения : Frame
Продолжительность : 27 м.
Вид битрейта : Переменный
Битрейт : 2639 Кбит/сек
Максимальный битрейт : 10000 Кбит/сек
Ширина : 720 пикселей
Высота : 576 пикселей
Соотношение сторон : 4:3
Частота кадров : 25,000 кадров/сек
Стандарт вещания : PAL
Цветовое пространство : YUV
Субдискретизация насыщенности : 4:2:0
Битовая глубина : 8 бит
Тип развёртки : Чересстрочная
Порядок развёртки : Верхнее поле первое
Метод сжатия : С потерями
Бит/(Пиксели*Кадры) : 0.255
Временной код первого кадра : 00:00:00:00
Оригинал временного кода : Group of pictures header
GOP, открыто/закрыто : Открыто
GOP, открыто/закрыто на первом кадре : Закрыто
Размер потока : 521 Мбайт (91%)
Аудио
Идентификатор : 192 (0xC0)
Формат : MPEG Audio
Версия формата : Version 1
Профиль формата : Layer 2
Продолжительность : 27 м.
Вид битрейта : Постоянный
Битрейт : 192 Кбит/сек
Каналы : 2 канала
Частота : 48,0 КГц
Метод сжатия : С потерями
Задержка видео : 6 мс.
Размер потока : 37,9 Мбайт (7%)

Скриншоты

Запись потока *.ts произведена тюнером цифрового телевидения. В связи с тем, что не все плееры воспроизводят поток *.ts (MPEG-TS) , в данном видеофайле мной был сделан ремукс потока *.ts (MPEG-TS) в *.mpg (MPEG-PS) программой VideoReDo.
[teatrix.ru].t21519.torrent 
Торрент: Зарегистрирован [ 2016-03-20 12:30 ] · 968CFD36F2BD3B39B1E4EBF32D05ACDB4B79E310

Скачать .torrent

Скачать

12 KB

Статус: проверено
Скачан: 0 раз
Размер: 570 MB
terms.php



Быстрый ответ

Имя:

      
Для отправки сообщений необходимо включить JavaScript
Показать сообщения:    

Текущее время: 03-Дек 03:18

Часовой пояс: UTC + 3


Вы можете начинать темы
Вы можете отвечать на сообщения
Вы не можете редактировать свои сообщения
Вы не можете удалять свои сообщения
Вы не можете голосовать в опросах
Вы не можете прикреплять файлы к сообщениям
Вы можете скачивать файлы