(Classical / Symphony) Franz Schubert - Die Symphonien / The Symphonies / Франц Шуберт - Симфонии (Sachsische Staatskapelle Dresden, Colin Davis, 1994-1996) - 2004 [4 CD], FLAC (tracks+.cue) lossless


 

[Цитировать]

Franz Schubert | Франц Шуберт
(1797–1828)



Die Symphonien | The Symphonies | Симфонии


Sächsische Staatskapelle Dresden
Colin Davis conductor


Жанр: Classical / Symphony
Даты и место записи: Lukaskirche, Dresden, 1994–1996
Формат записи: DDD, Stereo
Год издания диска: 2004
Издатель (лейбл): RCA
Номер по каталогу: 82876 60392-2
Аудиокодек: FLAC
Тип рипа: tracks+.cue
Битрейт аудио: lossless
Продолжительность: 4:29:59
Наличие сканов в содержимом раздачи: да
Источник: What.CD
Релизёр: Notwithstanding

-Tracklist / ТреклистCD 1: Symphonien Nrn. 1, 3, 8
Symphonie Nr. 1 D-dur, D. 82 - 28:33
I. Adagio. — Allegro vivace - 11:23
  • II. Andante - 6:53
  • III. Allegro - 4:16
  • IV. Allegro vivace - 6:01
    Recorded: Lukaskirche, Dresden, 2–9 October 1995
    Symphonie Nr. 3 D-dur, D. 200 - 22:33
    I. Adagio maestoso. — Allegro con brio - 9:27
  • II. Allegretto - 4:11
  • III. Menuetto: Vivace - 4:08
  • IV. Presto vivace - 4:46
    Recorded: Lukaskirche, Dresden, 15–18 February 1994
    Symphonie Nr. 8 h-moll («Unvollendete»), D. 759 - 27:09
    I. Allegro moderato - 15:34
  • II. Andante con moto - 11:35
    Recorded: Lukaskirche, Dresden, 2–4 July 1996
    CD 2: Symphonien Nrn. 2, 4
    Symphonie Nr. 2 B-dur, D. 125 - 34:23
    I. Largo. — Allegro vivace - 14:14
  • II. Andante - 8:45
  • III. Menuetto: Allegro vivace - 3:07
  • IV. Presto - 8:17
    Recorded: Lukaskirche, Dresden, 2–9 October 1995
    Symphonie Nr. 4 c-moll «Tragische», D. 417 - 33:39
    I. Adagio molto. — Allegro vivace - 10:13
  • II. Andante - 9:38
  • III. Menuetto: Allegro vivace - 3:13
  • IV. Allegro - 10:35
    Recorded: Lukaskirche, Dresden, 2–9 October 1995
    CD 3: Symphonien Nrn. 5, 6
    Symphonie Nr. 5 B-dur, D. 485 - 29:31
    I. Allegro - 6:54
  • II. Andante con moto - 9:28
  • III. Menuetto: Allegro molto - 4:58
  • IV. Allegro vivace - 8:11
    Recorded: Lukaskirche, Dresden, 15–18 February 1994
    Symphonie Nr. 6 C-dur («Kleine»), D. 589 - 32:11
    I. Adagio. — Allegro - 9:26
  • II. Andante - 7:20
  • III. Scherzo: Presto - 6:01
  • IV. Allegro moderato - 9:24
    Recorded: Lukaskirche, Dresden, 15–18 February 1994
    CD 4: Symphonie Nr. 9
    Symphonie Nr. 9 C-dur («Große»), D. 944 - 1:02:00
    I. Andante. — Allegro ma non troppo - 16:48
  • II. Andante con moto - 13:57
  • III. Scherzo: Allegro vivace - 15:01
  • IV. Allegro vivace - 16:14
    Recorded: Lukaskirche, Dresden, 2–4 July 1996-

    EAC logs / Отчёты EACCD 1: Symphonien Nrn. 1, 3, 8

    Exact Audio Copy V0.99 prebeta 5 from 4. May 2009
    EAC extraction logfile from 17. October 2009, 11:18
    Staatskapelle Dresden & Sir Colin Davis / Schubert Symphonies Nos. 1, 3, 8
    Used drive : PLEXTOR DVDR PX-800A Adapter: 0 ID: 0
    Read mode : Secure
    Utilize accurate stream : Yes
    Defeat audio cache : Yes
    Make use of C2 pointers : No
    Read offset correction : 48
    Overread into Lead-In and Lead-Out : No
    Fill up missing offset samples with silence : Yes
    Delete leading and trailing silent blocks : No
    Null samples used in CRC calculations : Yes
    Used interface : Native Win32 interface for Win NT & 2000
    Gap handling : Appended to previous track
    Used output format : User Defined Encoder
    Selected bitrate : 128 kBit/s
    Quality : High
    Add ID3 tag : No
    Command line compressor : C:\Program Files (x86)\FLAC\flac.exe
    Additional command line options : -8 -V -T "ARTIST=%a" -T "TITLE=%t" -T "ALBUM=%g" -T "DATE=%y" -T "TRACKNUMBER=%n" -T "GENRE=%m" -T "COMMENT=EAC FLAC -8" %s
    TOC of the extracted CD
    Track | Start | Length | Start sector | End sector
    ---------------------------------------------------------
    1 | 0:00.00 | 11:23.00 | 0 | 51224
    2 | 11:23.00 | 6:52.45 | 51225 | 82169
    3 | 18:15.45 | 4:16.35 | 82170 | 101404
    4 | 22:32.05 | 6:00.70 | 101405 | 128474
    5 | 28:33.00 | 9:27.15 | 128475 | 171014
    6 | 38:00.15 | 4:11.30 | 171015 | 189869
    7 | 42:11.45 | 4:08.02 | 189870 | 208471
    8 | 46:19.47 | 4:46.28 | 208472 | 229949
    9 | 51:06.00 | 15:34.07 | 229950 | 300006
    10 | 66:40.07 | 11:34.68 | 300007 | 352124
    Track 1
    Filename F:\My Music\EacRips\01 - Symphony No. 1 in D major, D.82 - I Adagio; Allegro vivace.wav
    Pre-gap length 0:00:02.00
    Peak level 100.0 %
    Track quality 100.0 %
    Test CRC 48A92DFB
    Copy CRC 48A92DFB
    Accurately ripped (confidence 3) [10802C76]
    Copy OK
    Track 2
    Filename F:\My Music\EacRips\02 - Symphony No. 1 in D major, D.82 - II Andante.wav
    Peak level 45.6 %
    Track quality 100.0 %
    Test CRC DC508237
    Copy CRC DC508237
    Accurately ripped (confidence 3) [8A011C41]
    Copy OK
    Track 3
    Filename F:\My Music\EacRips\03 - Symphony No. 1 in D major, D.82 - III Allegro.wav
    Peak level 83.5 %
    Track quality 100.0 %
    Test CRC 75FD7A58
    Copy CRC 75FD7A58
    Accurately ripped (confidence 3) [81974B47]
    Copy OK
    Track 4
    Filename F:\My Music\EacRips\04 - Symphony No. 1 in D major, D.82 - IV Allegro vivace.wav
    Peak level 100.0 %
    Track quality 99.9 %
    Test CRC 79E266BB
    Copy CRC 79E266BB
    Accurately ripped (confidence 3) [895D7D63]
    Copy OK
    Track 5
    Filename F:\My Music\EacRips\05 - Symphony No. 3 in D major, D.200 - I Adagio maestoso; Allegro con brio.wav
    Pre-gap length 0:00:00.01
    Peak level 99.3 %
    Track quality 99.9 %
    Test CRC 8E43500F
    Copy CRC 8E43500F
    Accurately ripped (confidence 3) [671CE734]
    Copy OK
    Track 6
    Filename F:\My Music\EacRips\06 - Symphony No. 3 in D major, D.200 - II Allegretto.wav
    Peak level 34.0 %
    Track quality 99.9 %
    Test CRC 1EB1E934
    Copy CRC 1EB1E934
    Accurately ripped (confidence 3) [5321DD22]
    Copy OK
    Track 7
    Filename F:\My Music\EacRips\07 - Symphony No. 3 in D major, D.200 - III Menuetto vivace; Trio.wav
    Peak level 91.7 %
    Track quality 99.9 %
    Test CRC 0C2C2864
    Copy CRC 0C2C2864
    Accurately ripped (confidence 3) [200CD388]
    Copy OK
    Track 8
    Filename F:\My Music\EacRips\08 - Symphony No. 3 in D major, D.200 - IV Presto vivace.wav
    Peak level 81.7 %
    Track quality 100.0 %
    Test CRC C48D6B25
    Copy CRC C48D6B25
    Accurately ripped (confidence 3) [ED84B7F5]
    Copy OK
    Track 9
    Filename F:\My Music\EacRips\09 - Symphony No. 8 in B Minor 'Unfinished', D.759 - I Allegro moderato.wav
    Peak level 99.9 %
    Track quality 99.9 %
    Test CRC D6B7301F
    Copy CRC D6B7301F
    Accurately ripped (confidence 3) [B6B5BBBF]
    Copy OK
    Track 10
    Filename F:\My Music\EacRips\10 - Symphony No. 8 in B Minor 'Unfinished', D.759 - II Andante con moto.wav
    Peak level 96.9 %
    Track quality 99.9 %
    Test CRC 3C353A19
    Copy CRC 3C353A19
    Accurately ripped (confidence 3) [14F6EE96]
    Copy OK
    All tracks accurately ripped
    No errors occurred
    End of status report

    CD 2: Symphonien Nrn. 2, 4

    Exact Audio Copy V0.99 prebeta 5 from 4. May 2009
    EAC extraction logfile from 17. October 2009, 13:32
    - Staatskapelle Dresden & Sir Colin Davis / Schubert Symphonies Nos. 2, 4
    Used drive : PLEXTOR DVDR PX-800A Adapter: 0 ID: 0
    Read mode : Secure
    Utilize accurate stream : Yes
    Defeat audio cache : Yes
    Make use of C2 pointers : No
    Read offset correction : 48
    Overread into Lead-In and Lead-Out : No
    Fill up missing offset samples with silence : Yes
    Delete leading and trailing silent blocks : No
    Null samples used in CRC calculations : Yes
    Used interface : Native Win32 interface for Win NT & 2000
    Gap handling : Appended to previous track
    Used output format : User Defined Encoder
    Selected bitrate : 128 kBit/s
    Quality : High
    Add ID3 tag : No
    Command line compressor : C:\Program Files (x86)\FLAC\flac.exe
    Additional command line options : -8 -V -T "ARTIST=%a" -T "TITLE=%t" -T "ALBUM=%g" -T "DATE=%y" -T "TRACKNUMBER=%n" -T "GENRE=%m" -T "COMMENT=EAC FLAC -8" %s
    TOC of the extracted CD
    Track | Start | Length | Start sector | End sector
    ---------------------------------------------------------
    1 | 0:00.00 | 14:14.37 | 0 | 64086
    2 | 14:14.37 | 8:45.13 | 64087 | 103474
    3 | 22:59.50 | 3:06.50 | 103475 | 117474
    4 | 26:06.25 | 8:16.50 | 117475 | 154724
    5 | 34:23.00 | 10:13.25 | 154725 | 200724
    6 | 44:36.25 | 9:38.00 | 200725 | 244074
    7 | 54:14.25 | 3:12.50 | 244075 | 258524
    8 | 57:27.00 | 10:35.00 | 258525 | 306149
    Track 1
    Filename F:\My Music\EacRips\01 - Symphony No. 2 in B-Flat, D.125 - I Largo; Allegro vivace.wav
    Pre-gap length 0:00:02.00
    Peak level 88.0 %
    Track quality 100.0 %
    Test CRC 8FA6BCDF
    Copy CRC 8FA6BCDF
    Accurately ripped (confidence 3) [C19C6FB6]
    Copy OK
    Track 2
    Filename F:\My Music\EacRips\02 - Symphony No. 2 in B-Flat, D.125 - II Andante.wav
    Peak level 76.1 %
    Track quality 100.0 %
    Test CRC FB82ED33
    Copy CRC FB82ED33
    Accurately ripped (confidence 3) [69778E1A]
    Copy OK
    Track 3
    Filename F:\My Music\EacRips\03 - Symphony No. 2 in B-Flat, D.125 - III Menuetto- Allegro vivace; Trio.wav
    Pre-gap length 0:00:00.01
    Peak level 93.1 %
    Track quality 100.0 %
    Test CRC 905D5F31
    Copy CRC 905D5F31
    Accurately ripped (confidence 3) [3C8BA08E]
    Copy OK
    Track 4
    Filename F:\My Music\EacRips\04 - Symphony No. 2 in B-Flat, D.125 - IV Presto vivace.wav
    Pre-gap length 0:00:00.01
    Peak level 99.0 %
    Track quality 100.0 %
    Test CRC 41EC2763
    Copy CRC 41EC2763
    Accurately ripped (confidence 3) [87EDF0C3]
    Copy OK
    Track 5
    Filename F:\My Music\EacRips\05 - Symphony No. 4, in C minor, D.417 - I Adagio molto; Allegro vivace.wav
    Peak level 99.1 %
    Track quality 99.9 %
    Test CRC B4F1FCB8
    Copy CRC B4F1FCB8
    Accurately ripped (confidence 3) [07BC4FAD]
    Copy OK
    Track 6
    Filename F:\My Music\EacRips\06 - Symphony No. 4, in C minor, D.417 - II Andante.wav
    Peak level 50.9 %
    Track quality 100.0 %
    Test CRC 41BE0282
    Copy CRC 41BE0282
    Accurately ripped (confidence 3) [AA9DB631]
    Copy OK
    Track 7
    Filename F:\My Music\EacRips\07 - Symphony No. 4, in C minor, D.417 - III Menuetto- Allegro vivace; Trio.wav
    Pre-gap length 0:00:00.01
    Peak level 83.7 %
    Track quality 100.0 %
    Test CRC F838C9E8
    Copy CRC F838C9E8
    Accurately ripped (confidence 3) [1E23A85B]
    Copy OK
    Track 8
    Filename F:\My Music\EacRips\08 - Symphony No. 4, in C minor, D.417 - IV Allegro.wav
    Peak level 98.9 %
    Track quality 100.0 %
    Test CRC D2D1D7F3
    Copy CRC D2D1D7F3
    Accurately ripped (confidence 3) [91FB1EEF]
    Copy OK
    All tracks accurately ripped
    No errors occurred
    End of status report

    CD 3: Symphonien Nrn. 5, 6

    Exact Audio Copy V0.99 prebeta 5 from 4. May 2009
    EAC extraction logfile from 17. October 2009, 9:30
    Staatskapelle Dresden (Sir Colin Davis) / Schubert Symphonies Nos. 5, 6
    Used drive : PLEXTOR DVDR PX-800A Adapter: 0 ID: 0
    Read mode : Secure
    Utilize accurate stream : Yes
    Defeat audio cache : Yes
    Make use of C2 pointers : No
    Read offset correction : 48
    Overread into Lead-In and Lead-Out : No
    Fill up missing offset samples with silence : Yes
    Delete leading and trailing silent blocks : No
    Null samples used in CRC calculations : Yes
    Used interface : Native Win32 interface for Win NT & 2000
    Gap handling : Appended to previous track
    Used output format : User Defined Encoder
    Selected bitrate : 128 kBit/s
    Quality : High
    Add ID3 tag : No
    Command line compressor : C:\Program Files (x86)\FLAC\flac.exe
    Additional command line options : -8 -V -T "ARTIST=%a" -T "TITLE=%t" -T "ALBUM=%g" -T "DATE=%y" -T "TRACKNUMBER=%n" -T "GENRE=%m" -T "COMMENT=EAC FLAC -8" %s
    TOC of the extracted CD
    Track | Start | Length | Start sector | End sector
    ---------------------------------------------------------
    1 | 0:00.00 | 6:54.37 | 0 | 31086
    2 | 6:54.37 | 9:28.00 | 31087 | 73686
    3 | 16:22.37 | 4:57.45 | 73687 | 96006
    4 | 21:20.07 | 8:11.30 | 96007 | 132861
    5 | 29:31.37 | 9:26.00 | 132862 | 175311
    6 | 38:57.37 | 7:20.00 | 175312 | 208311
    7 | 46:17.37 | 6:01.00 | 208312 | 235386
    8 | 52:18.37 | 9:23.43 | 235387 | 277654
    Track 1
    Filename F:\My Music\EacRips\01 - Symphony No. 5 in B-Flat, D.485 - I Allegro.wav
    Pre-gap length 0:00:02.00
    Peak level 57.8 %
    Track quality 100.0 %
    Test CRC BA3E457E
    Copy CRC BA3E457E
    Accurately ripped (confidence 3) [DACBDE14]
    Copy OK
    Track 2
    Filename F:\My Music\EacRips\02 - Symphony No. 5 in B-Flat, D.485 - II Andante con moto.wav
    Peak level 27.6 %
    Track quality 100.0 %
    Test CRC 6795F91B
    Copy CRC 6795F91B
    Accurately ripped (confidence 3) [6A9E3ED1]
    Copy OK
    Track 3
    Filename F:\My Music\EacRips\03 - Symphony No. 5 in B-Flat, D.485 - III Menuetto- Allegro molto; Trio.wav
    Peak level 40.2 %
    Track quality 100.0 %
    Test CRC 78C622E1
    Copy CRC 78C622E1
    Accurately ripped (confidence 3) [D00B1689]
    Copy OK
    Track 4
    Filename F:\My Music\EacRips\04 - Symphony No. 5 in B-Flat, D.485 - IV Allegro vivace.wav
    Peak level 49.2 %
    Track quality 100.0 %
    Test CRC F08FAFA8
    Copy CRC F08FAFA8
    Accurately ripped (confidence 3) [48FEA602]
    Copy OK
    Track 5
    Filename F:\My Music\EacRips\05 - Symphony No. 6 in C, 'The Little', D.589 - I Adagio; Allegretto.wav
    Peak level 66.4 %
    Track quality 100.0 %
    Test CRC 8BB66275
    Copy CRC 8BB66275
    Accurately ripped (confidence 3) [92F06067]
    Copy OK
    Track 6
    Filename F:\My Music\EacRips\06 - Symphony No. 6 in C, 'The Little', D.589 - II Andante.wav
    Peak level 75.2 %
    Track quality 100.0 %
    Test CRC B486CB4F
    Copy CRC B486CB4F
    Accurately ripped (confidence 3) [619E7734]
    Copy OK
    Track 7
    Filename F:\My Music\EacRips\07 - Symphony No. 6 in C, 'The Little', D.589 - III Scherzo- Presto.wav
    Peak level 67.5 %
    Track quality 100.0 %
    Test CRC 7CDD151F
    Copy CRC 7CDD151F
    Accurately ripped (confidence 3) [CF64A4C7]
    Copy OK
    Track 8
    Filename F:\My Music\EacRips\08 - Symphony No. 6 in C, 'The Little', D.589 - IV Allegro moderato.wav
    Peak level 93.2 %
    Track quality 100.0 %
    Test CRC FB47E29E
    Copy CRC FB47E29E
    Accurately ripped (confidence 3) [7D91D876]
    Copy OK
    All tracks accurately ripped
    No errors occurred
    End of status report

    CD 4: Symphonie Nr. 9

    Exact Audio Copy V0.99 prebeta 5 from 4. May 2009
    EAC extraction logfile from 17. October 2009, 8:53
    Staatskapelle Dresden (Sir Colin Davis) / Schubert: Symphony No. 9
    Used drive : PLEXTOR DVDR PX-800A Adapter: 0 ID: 0
    Read mode : Secure
    Utilize accurate stream : Yes
    Defeat audio cache : Yes
    Make use of C2 pointers : No
    Read offset correction : 48
    Overread into Lead-In and Lead-Out : No
    Fill up missing offset samples with silence : Yes
    Delete leading and trailing silent blocks : No
    Null samples used in CRC calculations : Yes
    Used interface : Native Win32 interface for Win NT & 2000
    Gap handling : Appended to previous track
    Used output format : User Defined Encoder
    Selected bitrate : 128 kBit/s
    Quality : High
    Add ID3 tag : No
    Command line compressor : C:\Program Files (x86)\FLAC\flac.exe
    Additional command line options : -8 -V -T "ARTIST=%a" -T "TITLE=%t" -T "ALBUM=%g" -T "DATE=%y" -T "TRACKNUMBER=%n" -T "GENRE=%m" -T "COMMENT=EAC FLAC -8" %s
    TOC of the extracted CD
    Track | Start | Length | Start sector | End sector
    ---------------------------------------------------------
    1 | 0:00.00 | 16:48.00 | 0 | 75599
    2 | 16:48.00 | 13:57.00 | 75600 | 138374
    3 | 30:45.00 | 15:00.62 | 138375 | 205936
    4 | 45:45.62 | 16:14.13 | 205937 | 278999
    Track 1
    Filename F:\My Music\EacRips\01 - Andante - Allegro ma non troppo.wav
    Pre-gap length 0:00:02.00
    Peak level 99.2 %
    Track quality 100.0 %
    Test CRC 6F53B597
    Copy CRC 6F53B597
    Accurately ripped (confidence 4) [3E9F0AD6]
    Copy OK
    Track 2
    Filename F:\My Music\EacRips\02 - Andante con moto.wav
    Peak level 99.3 %
    Track quality 100.0 %
    Test CRC CF559CB6
    Copy CRC CF559CB6
    Accurately ripped (confidence 4) [BD5DD7E1]
    Copy OK
    Track 3
    Filename F:\My Music\EacRips\03 - Scherzo - Allegro vivace; Trio.wav
    Pre-gap length 0:00:00.01
    Peak level 99.4 %
    Track quality 100.0 %
    Test CRC CEE18D96
    Copy CRC CEE18D96
    Accurately ripped (confidence 4) [29928438]
    Copy OK
    Track 4
    Filename F:\My Music\EacRips\04 - Finale - Allegro vivace.wav
    Peak level 100.0 %
    Track quality 100.0 %
    Test CRC FA9A6886
    Copy CRC FA9A6886
    Accurately ripped (confidence 4) [5E7365AA]
    Copy OK
    All tracks accurately ripped
    No errors occurred
    End of status report

    auCDtect Task Manager logs / Отчёты auCDtect Task ManagerCD 1: Symphonien Nrn. 1, 3, 8

    -----------------------
    DON'T MODIFY THIS FILE
    -----------------------
    PERFORMER: auCDtect Task Manager, ver. 1.5.1RC3 build 1.5.1.4
    Copyright (c) 2008-2010 y-soft. All rights reserved
    ANALYZER: auCDtect: CD records authenticity detector, version 0.8.2
    Copyright (c) 2004 Oleg Berngardt. All rights reserved.
    Copyright (c) 2004 Alexander Djourik. All rights reserved.
    FILE: 10 - Symphonie Nr. 8 h-moll (''Unvollendete''), D. 759 - II. Andante con moto.flac
    Size: 45738540 Hash: E0157C05405F6374EAADB0909ACD0CD9 Accuracy: -m0
    Conclusion: ???
    Signature: AAC66372F4F9B1FAC284169BD462A10D4BB36E0D
    FILE: 09 - Symphonie Nr. 8 h-moll (''Unvollendete''), D. 759 - I. Allegro moderato.flac
    Size: 65486040 Hash: B7BDE712A06352E50B8AD9AAD6335ABC Accuracy: -m0
    Conclusion: CDDA 58%
    Signature: 8A22287A7B196DA1B7D48C54A876D2B1A621A8BF
    FILE: 08 - Symphonie Nr. 3 D-dur, D. 200 - IV. Presto vivace.flac
    Size: 23726063 Hash: C15EAFB1FBCD1738D32CA6095E1E9084 Accuracy: -m0
    Conclusion: CDDA 99%
    Signature: 25C98F78BFD509D813CF86CDE6938D25CA033C8A
    FILE: 07 - Symphonie Nr. 3 D-dur, D. 200 - III. Menuetto. Vivace.flac
    Size: 18777919 Hash: 725579B7FDD0893CFB93CC15B0830AE4 Accuracy: -m0
    Conclusion: CDDA 86%
    Signature: 6265A98B3A38764E2B3B7116D3A6CBF942E70FE8
    FILE: 06 - Symphonie Nr. 3 D-dur, D. 200 - II. Allegretto.flac
    Size: 16293159 Hash: 5A52E7D2CF744DD2156AE07D5A73C8E6 Accuracy: -m0
    Conclusion: CDDA 86%
    Signature: A555B2B91224AE02150C2734091DD87076294B17
    FILE: 05 - Symphonie Nr. 3 D-dur, D. 200 - I. Adagio maestoso. - Allegro con brio.flac
    Size: 44941422 Hash: 1BC464FEE01F37A04809A36D5ABB4C4F Accuracy: -m0
    Conclusion: CDDA 100%
    Signature: 0A16F52281080EE8ED082955F3F1107BFBF596B4
    FILE: 04 - Symphonie Nr. 1 D-dur, D. 82 - IV. Allegro vivace.flac
    Size: 30392968 Hash: 116C275F3F00362F7133833363778354 Accuracy: -m0
    Conclusion: CDDA 92%
    Signature: 849989C02DE8E3CA8D65FAA6C37FC8BF18D32732
    FILE: 03 - Symphonie Nr. 1 D-dur, D. 82 - III. Allegro.flac
    Size: 20144949 Hash: A5D30096A990859B10883EE270683F2D Accuracy: -m0
    Conclusion: CDDA 42%
    Signature: B75699F227D9CC3DA55FD6EB2F1D6F260DFE5EC7
    FILE: 02 - Symphonie Nr. 1 D-dur, D. 82 - II. Andante.flac
    Size: 29857488 Hash: 7AAF304F3B0B9A7D8CB269AA0944B26F Accuracy: -m0
    Conclusion: CDDA 42%
    Signature: AB3F53ED3530B14FC82F3529D038CD1969DB06C5
    FILE: 01 - Symphonie Nr. 1 D-dur, D. 82 - I. Adagio. - Allegro vivace.flac
    Size: 58231207 Hash: 4B20C13912CD4D7BB0145A00FACE5537 Accuracy: -m0
    Conclusion: CDDA 92%
    Signature: 36FC452734E8AA0484B052A7A50DCF62BAB68698

    CD 2: Symphonien Nrn. 2, 4

    -----------------------
    DON'T MODIFY THIS FILE
    -----------------------
    PERFORMER: auCDtect Task Manager, ver. 1.5.1RC3 build 1.5.1.4
    Copyright (c) 2008-2010 y-soft. All rights reserved
    ANALYZER: auCDtect: CD records authenticity detector, version 0.8.2
    Copyright (c) 2004 Oleg Berngardt. All rights reserved.
    Copyright (c) 2004 Alexander Djourik. All rights reserved.
    FILE: 08 - Symphonie Nr. 4 c-moll ''Tragische'', D. 417 - IV. Allegro.flac
    Size: 51415541 Hash: 1484437D0454B89A5D855518F04E4638 Accuracy: -m0
    Conclusion: CDDA 100%
    Signature: 20AE4BB3A0B23945D25C67A99EBA11A761E5A5DB
    FILE: 07 - Symphonie Nr. 4 c-moll ''Tragische'', D. 417 - III. Menuetto. Allegro vivace.flac
    Size: 13998681 Hash: B48DCDFFBF52B632D0A95DA58A9CCAFE Accuracy: -m0
    Conclusion: CDDA 100%
    Signature: 34A6F374C0CD371DE4495B9F9B7B8763373CFAE7
    FILE: 06 - Symphonie Nr. 4 c-moll ''Tragische'', D. 417 - II. Andante.flac
    Size: 40544187 Hash: F10A4407006D5E9AE83139EBDD50AC6C Accuracy: -m0
    Conclusion: CDDA 100%
    Signature: 6D9FB3D08BC3EA94345B3B85AB948303458FAEF0
    FILE: 05 - Symphonie Nr. 4 c-moll ''Tragische'', D. 417 - I. Adagio molto. - Allegro vivace.flac
    Size: 47361706 Hash: 9037574FA679C0A88CC8F0CC8C0A8BF1 Accuracy: -m0
    Conclusion: CDDA 100%
    Signature: 2648D61BC2F74002CD08A5A3C84BE37DA808CCB0
    FILE: 04 - Symphonie Nr. 2 B-dur, D. 125 - IV. Presto.flac
    Size: 41138128 Hash: 22B79FD576B002993AD6BF76A5FE4EBA Accuracy: -m0
    Conclusion: CDDA 100%
    Signature: AEC8FCF81C54BF33AFAF42B335E4E5EE6AB34254
    FILE: 03 - Symphonie Nr. 2 B-dur, D. 125 - III. Menuetto. Allegro vivace.flac
    Size: 15228988 Hash: 1C98D8FC8D3958C1384C86A04CAB92EC Accuracy: -m0
    Conclusion: CDDA 100%
    Signature: 9F8D96A48A4BF41C0CC7E691C2958373BC309693
    FILE: 02 - Symphonie Nr. 2 B-dur, D. 125 - II. Andante.flac
    Size: 38075270 Hash: 0B5B5A83E04F42E11F0B008CE3CF6460 Accuracy: -m0
    Conclusion: CDDA 100%
    Signature: AAB4820D9B2C466CA559C3C9A17E3AABE1BCC932
    FILE: 01 - Symphonie Nr. 2 B-dur, D. 125 - I. Largo. - Allegro vivace.flac
    Size: 70853620 Hash: 8CA34B1D4C42C09C793F473C9A1A15D1 Accuracy: -m0
    Conclusion: CDDA 100%
    Signature: AE9914AF074D19BEACC8BBCD84825D73122DB0AC

    CD 3: Symphonien Nrn. 5, 6

    -----------------------
    DON'T MODIFY THIS FILE
    -----------------------
    PERFORMER: auCDtect Task Manager, ver. 1.5.1RC3 build 1.5.1.4
    Copyright (c) 2008-2010 y-soft. All rights reserved
    ANALYZER: auCDtect: CD records authenticity detector, version 0.8.2
    Copyright (c) 2004 Oleg Berngardt. All rights reserved.
    Copyright (c) 2004 Alexander Djourik. All rights reserved.
    FILE: 08 - Symphonie Nr. 6 C-dur (''Kleine''), D. 589 - IV. Allegro moderato.flac
    Size: 45711090 Hash: 73B508937ACC6A252865008889CC4B6F Accuracy: -m0
    Conclusion: CDDA 100%
    Signature: 3C011B3CCE0F616B19E19E0B46AC6D2E39E6A6F2
    FILE: 07 - Symphonie Nr. 6 C-dur (''Kleine''), D. 589 - III. Scherzo. Presto.flac
    Size: 29582975 Hash: D5E42063F35A1FAFD9F40C9505E30333 Accuracy: -m0
    Conclusion: CDDA 100%
    Signature: E8C6989D4427122187F06E086564DC8B876B385F
    FILE: 06 - Symphonie Nr. 6 C-dur (''Kleine''), D. 589 - II. Andante.flac
    Size: 33321339 Hash: 70092B34CA9B307C29F25825A913CD34 Accuracy: -m0
    Conclusion: CDDA 100%
    Signature: 5D78EE154F7B6879E24445D36076B31F38B744C7
    FILE: 05 - Symphonie Nr. 6 C-dur (''Kleine''), D. 589 - I. Adagio. - Allegro.flac
    Size: 44909629 Hash: 75A71E0DE6916B12EB0E7A260717ACA2 Accuracy: -m0
    Conclusion: CDDA 100%
    Signature: 7CA710351A7150AF6551BC26335A24BF93BB06C3
    FILE: 04 - Symphonie Nr. 5 B-dur, D. 485 - IV. Allegro vivace.flac
    Size: 41521212 Hash: 9F000E7801E0B6A3F036B6367FFA3A52 Accuracy: -m0
    Conclusion: CDDA 100%
    Signature: F4A931522F47B315387BD66EBD4CF6CBCBCC95DA
    FILE: 03 - Symphonie Nr. 5 B-dur, D. 485 - III. Menuetto. Allegro molto.flac
    Size: 23729700 Hash: 599BB1FA43F9CA88132E7E8EB82F7648 Accuracy: -m0
    Conclusion: CDDA 100%
    Signature: C24587B7A1322064322257F923704F38F3FB4DB0
    FILE: 02 - Symphonie Nr. 5 B-dur, D. 485 - II. Andante con moto.flac
    Size: 42954686 Hash: 8F3F449C2E9DCA237DB6001E0F77697C Accuracy: -m0
    Conclusion: CDDA 100%
    Signature: 7E96D3AD1F01F4E545554088741E7487465DB905
    FILE: 01 - Symphonie Nr. 5 B-dur, D. 485 - I. Allegro.flac
    Size: 35481077 Hash: E5D3286DDAF26CDCA3EFBA4154189D70 Accuracy: -m0
    Conclusion: CDDA 99%
    Signature: 7E6745AB97FFA25B6C6308152D885E11C501388C

    CD 4: Symphonie Nr. 9

    -----------------------
    DON'T MODIFY THIS FILE
    -----------------------
    PERFORMER: auCDtect Task Manager, ver. 1.5.1RC3 build 1.5.1.4
    Copyright (c) 2008-2010 y-soft. All rights reserved
    ANALYZER: auCDtect: CD records authenticity detector, version 0.8.2
    Copyright (c) 2004 Oleg Berngardt. All rights reserved.
    Copyright (c) 2004 Alexander Djourik. All rights reserved.
    FILE: 04 - Symphonie Nr. 9 C-dur (''Grosse''), D. 944 - IV. Allegro vivace.flac
    Size: 79318172 Hash: E4BB9D317E98E037640C02A2DA258B73 Accuracy: -m0
    Conclusion: CDDA 100%
    Signature: 4D3E3AC1E0CD8F823A600CF3152C9CC5027D1FE6
    FILE: 03 - Symphonie Nr. 9 C-dur (''Grosse''), D. 944 - III. Scherzo. Allegro vivace.flac
    Size: 69705009 Hash: E82DFFCD00B93016CC702BD6406318BB Accuracy: -m0
    Conclusion: CDDA 42%
    Signature: 9CC6E7639F74DCD7FB39B1E0D1F40B7F47C4E9A4
    FILE: 02 - Symphonie Nr. 9 C-dur (''Grosse''), D. 944 - II. Andante con moto.flac
    Size: 59477940 Hash: 771ED95174A62CA24702CC06A913F50B Accuracy: -m0
    Conclusion: CDDA 49%
    Signature: 1E3699EE34816970B75BB5869D4E455A1A3742D3
    FILE: 01 - Symphonie Nr. 9 C-dur (''Grosse''), D. 944 - I. Andante. - Allegro ma non troppo.flac
    Size: 78698734 Hash: 12FFCF9B8ABDB9B17739F4B74B34DBD1 Accuracy: -m0
    Conclusion: CDDA 54%
    Signature: 10715785423526B18FCC262C45AB242A4401AA6C

    CUETools logs / Отчёты CUEToolsCD 1: Symphonien Nrn. 1, 3, 8

    [CUETools log; Date: 21.06.2015 01:16:13; Version: 2.1.4]
    [AccurateRip ID: 001bb0ba-00db291b-8512570a] found.
    Track [ CRC | V2 ] Status
    01 [10802c76|f127051e] (07+13/40) Accurately ripped
    02 [8a011c41|7d80ff7b] (07+13/40) Accurately ripped
    03 [81974b47|17da6f93] (07+13/40) Accurately ripped
    04 [895d7d63|a2e2d39f] (07+13/39) Accurately ripped
    05 [671ce734|2cb7e044] (07+13/39) Accurately ripped
    06 [5321dd22|89c7f798] (07+13/40) Accurately ripped
    07 [200cd388|d55c5198] (07+13/40) Accurately ripped
    08 [ed84b7f5|7e2d18b0] (07+13/40) Accurately ripped
    09 [b6b5bbbf|bfec8e65] (07+13/40) Accurately ripped
    10 [14f6ee96|a32f11b1] (07+13/41) Accurately ripped
    Offsetted by 664:
    01 [cb5e5244] (02/40) Accurately ripped
    02 [6cb13edc] (02/40) Accurately ripped
    03 [a19b1bd4] (02/40) Accurately ripped
    04 [1cf2892c] (02/39) Accurately ripped
    05 [074fde7d] (02/39) Accurately ripped
    06 [6a4be69c] (02/40) Accurately ripped
    07 [f7a40895] (02/40) Accurately ripped
    08 [42d215aa] (02/40) Accurately ripped
    09 [37f58164] (03/40) Accurately ripped
    10 [adaa2a46] (03/41) Accurately ripped
    Offsetted by -664:
    01 [1721413a] (00/40) No match (V2 was not tested)
    02 [e6be5b88] (00/40) No match (V2 was not tested)
    03 [026ab7aa] (00/40) No match (V2 was not tested)
    04 [e9722586] (00/39) No match (V2 was not tested)
    05 [7fdcec3e] (00/39) No match (V2 was not tested)
    06 [e9826f0d] (00/40) No match (V2 was not tested)
    07 [d3a3c47c] (00/40) No match (V2 was not tested)
    08 [d23fcadd] (00/40) No match (V2 was not tested)
    09 [90e93066] (00/40) No match (V2 was not tested)
    10 [d5956d70] (00/41) No match (V2 was not tested)
    Offsetted by -5:
    01 [12413685] (00/40) No match (V2 was not tested)
    02 [e033e7b3] (00/40) No match (V2 was not tested)
    03 [229db3c7] (00/40) No match (V2 was not tested)
    04 [58208b18] (00/39) No match (V2 was not tested)
    05 [8a865513] (00/39) No match (V2 was not tested)
    06 [07170b82] (00/40) No match (V2 was not tested)
    07 [a638177f] (00/40) No match (V2 was not tested)
    08 [dc13958a] (00/40) No match (V2 was not tested)
    09 [456d0d67] (00/40) No match (V2 was not tested)
    10 [a8a02f4e] (00/41) No match (V2 was not tested)
    Track Peak [ CRC32 ] [W/O NULL] [ LOG ]
    -- 100,0 [C0CFDB95] [0D2866B6]
    01 100,0 [48A92DFB] [76DE1401] CRC32
    02 45,6 [DC508237] [63814204] CRC32
    03 83,5 [75FD7A58] [F188D682] CRC32
    04 100,0 [79E266BB] [E6677D74] CRC32
    05 99,3 [8E43500F] [EE2F8C7F] CRC32
    06 33,9 [1EB1E934] [F829B53E] CRC32
    07 91,7 [0C2C2864] [78593E5F] CRC32
    08 81,7 [C48D6B25] [8F2C538B] CRC32
    09 99,9 [D6B7301F] [839FA67C] CRC32
    10 96,9 [3C353A19] [05E852FF] CRC32

    CD 2: Symphonien Nrn. 2, 4

    [CUETools log; Date: 21.06.2015 01:16:30; Version: 2.1.4]
    [AccurateRip ID: 00161d15-008fb736-7e0ff208] found.
    Track [ CRC | V2 ] Status
    01 [c19c6fb6|77d1718b] (05+13/38) Accurately ripped
    02 [69778e1a|d57d21aa] (07+13/40) Accurately ripped
    03 [3c8ba08e|7c73a325] (07+13/40) Accurately ripped
    04 [87edf0c3|9165bf1b] (07+13/40) Accurately ripped
    05 [07bc4fad|842b4134] (07+13/40) Accurately ripped
    06 [aa9db631|d820b0fd] (07+13/40) Accurately ripped
    07 [1e23a85b|675b9dd0] (07+13/40) Accurately ripped
    08 [91fb1eef|7717f2ec] (07+13/40) Accurately ripped
    Offsetted by 664:
    01 [d4857466] (02/38) Accurately ripped
    02 [85b8ac9c] (02/40) Accurately ripped
    03 [16d2568a] (02/40) Accurately ripped
    04 [8a6ca426] (02/40) Accurately ripped
    05 [be214021] (02/40) Accurately ripped
    06 [4eeb475b] (02/40) Accurately ripped
    07 [fc09e275] (02/40) Accurately ripped
    08 [37de45ae] (02/40) Accurately ripped
    Offsetted by -667:
    01 [4f4ea84c] (00/38) No match (V2 was not tested)
    02 [7ddf5634] (00/40) No match (V2 was not tested)
    03 [11b03731] (00/40) No match (V2 was not tested)
    04 [423929e5] (00/40) No match (V2 was not tested)
    05 [02864be5] (00/40) No match (V2 was not tested)
    06 [e374f5ff] (00/40) No match (V2 was not tested)
    07 [72b3b2e8] (00/40) No match (V2 was not tested)
    08 [a4df5798] (00/40) No match (V2 was not tested)
    Offsetted by -5:
    01 [bd8daa60] (00/38) No match (V2 was not tested)
    02 [00248ae4] (00/40) No match (V2 was not tested)
    03 [c33996d4] (00/40) No match (V2 was not tested)
    04 [dc248d40] (00/40) No match (V2 was not tested)
    05 [b1e5bd51] (00/40) No match (V2 was not tested)
    06 [0d6b2f14] (00/40) No match (V2 was not tested)
    07 [9b131d10] (00/40) No match (V2 was not tested)
    08 [e2c28c20] (00/40) No match (V2 was not tested)
    Track Peak [ CRC32 ] [W/O NULL] [ LOG ]
    -- 99,1 [F4135615] [724BD31D]
    01 88,0 [8FA6BCDF] [C5378BED] CRC32
    02 76,1 [FB82ED33] [DAB089C8] CRC32
    03 93,1 [905D5F31] [44C53B34] CRC32
    04 99,0 [41EC2763] [69E0F1F8] CRC32
    05 99,1 [B4F1FCB8] [AA9592B5] CRC32
    06 50,9 [41BE0282] [545DB968] CRC32
    07 83,7 [F838C9E8] [FDE633E5] CRC32
    08 98,9 [D2D1D7F3] [4C73974B] CRC32

    CD 3: Symphonien Nrn. 5, 6

    [CUETools log; Date: 21.06.2015 01:16:44; Version: 2.1.4]
    [AccurateRip ID: 0012c5e5-007d7b85-730e7608] found.
    Track [ CRC | V2 ] Status
    01 [dacbde14|09a55e46] (07+12/39) Accurately ripped
    02 [6a9e3ed1|e70db44d] (07+12/39) Accurately ripped
    03 [d00b1689|9fe0e520] (07+12/39) Accurately ripped
    04 [48fea602|c57759ee] (07+12/38) Accurately ripped
    05 [92f06067|073867fc] (07+12/39) Accurately ripped
    06 [619e7734|094cc50d] (07+12/38) Accurately ripped
    07 [cf64a4c7|78dc089b] (07+12/38) Accurately ripped
    08 [7d91d876|2707717d] (07+12/39) Accurately ripped
    Offsetted by 667:
    01 [ac41bb3f] (04/39) Accurately ripped
    02 [faf8a999] (04/39) Accurately ripped
    03 [8867175d] (04/39) Accurately ripped
    04 [c446bf35] (04/38) Accurately ripped
    05 [b19e61b8] (04/39) Accurately ripped
    06 [f9b7bbf7] (03/38) Accurately ripped
    07 [38e01d43] (03/38) Accurately ripped
    08 [444709b5] (04/39) Accurately ripped
    Offsetted by -664:
    01 [0861ed00] (00/39) No match (V2 was not tested)
    02 [3af87ac9] (00/39) No match (V2 was not tested)
    03 [6d905e9e] (00/39) No match (V2 was not tested)
    04 [505ec7a9] (00/38) No match (V2 was not tested)
    05 [7fab0a9b] (00/39) No match (V2 was not tested)
    06 [67601e3f] (00/38) No match (V2 was not tested)
    07 [5466813c] (00/38) No match (V2 was not tested)
    08 [a28fc390] (00/39) No match (V2 was not tested)
    Track Peak [ CRC32 ] [W/O NULL] [ LOG ]
    -- 93,2 [37EB9392] [42B38C9B]
    01 57,8 [BA3E457E] [7B8EFA35] CRC32
    02 27,6 [6795F91B] [D4F431C1] CRC32
    03 40,2 [78C622E1] [557E5525] CRC32
    04 49,2 [F08FAFA8] [6328F5BE] CRC32
    05 66,4 [8BB66275] [D1958D46] CRC32
    06 75,2 [B486CB4F] [AF4A7431] CRC32
    07 67,5 [7CDD151F] [F545A33D] CRC32
    08 93,2 [FB47E29E] [F31DB088] CRC32

    CD 4: Symphonie Nr. 9

    [CUETools log; Date: 21.06.2015 01:17:01; Version: 2.1.4]
    [AccurateRip ID: 000aaa20-002a7f32-2c0e8804] found.
    Track [ CRC | V2 ] Status
    01 [3e9f0ad6|7f6ce75e] (10+14/45) Accurately ripped
    02 [bd5dd7e1|6da38e67] (10+14/45) Accurately ripped
    03 [29928438|5de8f8af] (10+14/45) Accurately ripped
    04 [5e7365aa|b05a8ded] (10+14/42) Accurately ripped
    Offsetted by -667:
    01 [1fe121b3] (00/45) No match (V2 was not tested)
    02 [c9be3572] (00/45) No match (V2 was not tested)
    03 [4bba1dd2] (00/45) No match (V2 was not tested)
    04 [ff5ef9c7] (00/42) No match (V2 was not tested)
    Offsetted by -5:
    01 [d61cdaef] (00/45) No match (V2 was not tested)
    02 [eaf5493c] (00/45) No match (V2 was not tested)
    03 [7b321710] (00/45) No match (V2 was not tested)
    04 [ba80192e] (00/42) No match (V2 was not tested)
    Offsetted by 664:
    01 [f8a9dcdb] (03/45) Accurately ripped
    02 [099e7940] (03/45) Accurately ripped
    03 [929d15ac] (03/45) Accurately ripped
    04 [2fde6a4a] (00/42) No match (V2 was not tested)
    Track Peak [ CRC32 ] [W/O NULL] [ LOG ]
    -- 100,0 [A9B49144] [BC9B372B]
    01 99,2 [6F53B597] [6CBAE693] CRC32
    02 99,3 [CF559CB6] [E15B4196] CRC32
    03 99,4 [CEE18D96] [C31A7139] CRC32
    04 100,0 [FA9A6886] [6C36078A] CRC32

    CUE sheetsCD 1: Symphonien Nrn. 1, 3, 8

    TITLE "Franz Schubert: Die Symphonien"
    PERFORMER "Colin Davis"
    REM GENRE Classical
    REM DISCID 8512570A
    REM COMMENT "ExactAudioCopy v0.99pb5"
    FILE "01 - Symphonie Nr. 1 D-dur, D. 82 - I. Adagio. - Allegro vivace.flac" WAVE
    TRACK 01 AUDIO
    TITLE "Symphonie Nr. 1 D-dur, D. 82: I. Adagio. — Allegro vivace"
    PERFORMER "Sächsische Staatskapelle Dresden, Colin Davis, conductor"
    REM DATE 1995
    INDEX 01 00:00:00
    FILE "02 - Symphonie Nr. 1 D-dur, D. 82 - II. Andante.flac" WAVE
    TRACK 02 AUDIO
    TITLE "Symphonie Nr. 1 D-dur, D. 82: II. Andante"
    PERFORMER "Sächsische Staatskapelle Dresden, Colin Davis, conductor"
    REM DATE 1995
    INDEX 01 00:00:00
    FILE "03 - Symphonie Nr. 1 D-dur, D. 82 - III. Allegro.flac" WAVE
    TRACK 03 AUDIO
    TITLE "Symphonie Nr. 1 D-dur, D. 82: III. Allegro"
    PERFORMER "Sächsische Staatskapelle Dresden, Colin Davis, conductor"
    REM DATE 1995
    INDEX 01 00:00:00
    FILE "04 - Symphonie Nr. 1 D-dur, D. 82 - IV. Allegro vivace.flac" WAVE
    TRACK 04 AUDIO
    TITLE "Symphonie Nr. 1 D-dur, D. 82: IV. Allegro vivace"
    PERFORMER "Sächsische Staatskapelle Dresden, Colin Davis, conductor"
    REM DATE 1995
    INDEX 01 00:00:00
    TRACK 05 AUDIO
    TITLE "Symphonie Nr. 3 D-dur, D. 200: I. Adagio maestoso. — Allegro con brio"
    PERFORMER "Sächsische Staatskapelle Dresden, Colin Davis, conductor"
    REM DATE 1994
    INDEX 00 06:00:69
    FILE "05 - Symphonie Nr. 3 D-dur, D. 200 - I. Adagio maestoso. - Allegro con brio.flac" WAVE
    INDEX 01 00:00:00
    FILE "06 - Symphonie Nr. 3 D-dur, D. 200 - II. Allegretto.flac" WAVE
    TRACK 06 AUDIO
    TITLE "Symphonie Nr. 3 D-dur, D. 200: II. Allegretto"
    PERFORMER "Sächsische Staatskapelle Dresden, Colin Davis, conductor"
    REM DATE 1994
    INDEX 01 00:00:00
    FILE "07 - Symphonie Nr. 3 D-dur, D. 200 - III. Menuetto. Vivace.flac" WAVE
    TRACK 07 AUDIO
    TITLE "Symphonie Nr. 3 D-dur, D. 200: III. Menuetto: Vivace"
    PERFORMER "Sächsische Staatskapelle Dresden, Colin Davis, conductor"
    REM DATE 1994
    INDEX 01 00:00:00
    FILE "08 - Symphonie Nr. 3 D-dur, D. 200 - IV. Presto vivace.flac" WAVE
    TRACK 08 AUDIO
    TITLE "Symphonie Nr. 3 D-dur, D. 200: IV. Presto vivace"
    PERFORMER "Sächsische Staatskapelle Dresden, Colin Davis, conductor"
    REM DATE 1994
    INDEX 01 00:00:00
    FILE "09 - Symphonie Nr. 8 h-moll (''Unvollendete''), D. 759 - I. Allegro moderato.flac" WAVE
    TRACK 09 AUDIO
    TITLE "Symphonie Nr. 8 h-moll («Unvollendete»), D. 759: I. Allegro moderato"
    PERFORMER "Sächsische Staatskapelle Dresden, Colin Davis, conductor"
    REM DATE 1996
    INDEX 01 00:00:00
    FILE "10 - Symphonie Nr. 8 h-moll (''Unvollendete''), D. 759 - II. Andante con moto.flac" WAVE
    TRACK 10 AUDIO
    TITLE "Symphonie Nr. 8 h-moll («Unvollendete»), D. 759: II. Andante con moto"
    PERFORMER "Sächsische Staatskapelle Dresden, Colin Davis, conductor"
    REM DATE 1996
    INDEX 01 00:00:00

    CD 2: Symphonien Nrn. 2, 4

    TITLE "Franz Schubert: Die Symphonien"
    PERFORMER "Colin Davis"
    REM GENRE Classical
    REM DISCID 7E0FF208
    REM COMMENT "ExactAudioCopy v0.99pb5"
    FILE "01 - Symphonie Nr. 2 B-dur, D. 125 - I. Largo. - Allegro vivace.flac" WAVE
    TRACK 01 AUDIO
    TITLE "Symphonie Nr. 2 B-dur, D. 125: I. Largo. — Allegro vivace"
    PERFORMER "Sächsische Staatskapelle Dresden, Colin Davis, conductor"
    REM DATE 1995
    INDEX 01 00:00:00
    FILE "02 - Symphonie Nr. 2 B-dur, D. 125 - II. Andante.flac" WAVE
    TRACK 02 AUDIO
    TITLE "Symphonie Nr. 2 B-dur, D. 125: II. Andante"
    PERFORMER "Sächsische Staatskapelle Dresden, Colin Davis, conductor"
    REM DATE 1995
    INDEX 01 00:00:00
    TRACK 03 AUDIO
    TITLE "Symphonie Nr. 2 B-dur, D. 125: III. Menuetto: Allegro vivace"
    PERFORMER "Sächsische Staatskapelle Dresden, Colin Davis, conductor"
    REM DATE 1995
    INDEX 00 08:45:12
    FILE "03 - Symphonie Nr. 2 B-dur, D. 125 - III. Menuetto. Allegro vivace.flac" WAVE
    INDEX 01 00:00:00
    TRACK 04 AUDIO
    TITLE "Symphonie Nr. 2 B-dur, D. 125: IV. Presto"
    PERFORMER "Sächsische Staatskapelle Dresden, Colin Davis, conductor"
    REM DATE 1995
    INDEX 00 03:06:49
    FILE "04 - Symphonie Nr. 2 B-dur, D. 125 - IV. Presto.flac" WAVE
    INDEX 01 00:00:00
    FILE "05 - Symphonie Nr. 4 c-moll ''Tragische'', D. 417 - I. Adagio molto. - Allegro vivace.flac" WAVE
    TRACK 05 AUDIO
    TITLE "Symphonie Nr. 4 c-moll «Tragische», D. 417: I. Adagio molto. — Allegro vivace"
    PERFORMER "Sächsische Staatskapelle Dresden, Colin Davis, conductor"
    REM DATE 1995
    INDEX 01 00:00:00
    FILE "06 - Symphonie Nr. 4 c-moll ''Tragische'', D. 417 - II. Andante.flac" WAVE
    TRACK 06 AUDIO
    TITLE "Symphonie Nr. 4 c-moll «Tragische», D. 417: II. Andante"
    PERFORMER "Sächsische Staatskapelle Dresden, Colin Davis, conductor"
    REM DATE 1995
    INDEX 01 00:00:00
    TRACK 07 AUDIO
    TITLE "Symphonie Nr. 4 c-moll «Tragische», D. 417: III. Menuetto: Allegro vivace"
    PERFORMER "Sächsische Staatskapelle Dresden, Colin Davis, conductor"
    REM DATE 1995
    INDEX 00 09:37:74
    FILE "07 - Symphonie Nr. 4 c-moll ''Tragische'', D. 417 - III. Menuetto. Allegro vivace.flac" WAVE
    INDEX 01 00:00:00
    FILE "08 - Symphonie Nr. 4 c-moll ''Tragische'', D. 417 - IV. Allegro.flac" WAVE
    TRACK 08 AUDIO
    TITLE "Symphonie Nr. 4 c-moll «Tragische», D. 417: IV. Allegro"
    PERFORMER "Sächsische Staatskapelle Dresden, Colin Davis, conductor"
    REM DATE 1995
    INDEX 01 00:00:00

    CD 3: Symphonien Nrn. 5, 6

    TITLE "Franz Schubert: Die Symphonien"
    PERFORMER "Colin Davis"
    REM GENRE Classical
    REM DISCID 730E7608
    REM COMMENT "ExactAudioCopy v0.99pb5"
    FILE "01 - Symphonie Nr. 5 B-dur, D. 485 - I. Allegro.flac" WAVE
    TRACK 01 AUDIO
    TITLE "Symphonie Nr. 5 B-dur, D. 485: I. Allegro"
    PERFORMER "Sächsische Staatskapelle Dresden, Colin Davis, conductor"
    REM DATE 1994
    FLAGS PRE
    INDEX 01 00:00:00
    FILE "02 - Symphonie Nr. 5 B-dur, D. 485 - II. Andante con moto.flac" WAVE
    TRACK 02 AUDIO
    TITLE "Symphonie Nr. 5 B-dur, D. 485: II. Andante con moto"
    PERFORMER "Sächsische Staatskapelle Dresden, Colin Davis, conductor"
    REM DATE 1994
    FLAGS PRE
    INDEX 01 00:00:00
    FILE "03 - Symphonie Nr. 5 B-dur, D. 485 - III. Menuetto. Allegro molto.flac" WAVE
    TRACK 03 AUDIO
    TITLE "Symphonie Nr. 5 B-dur, D. 485: III. Menuetto: Allegro molto"
    PERFORMER "Sächsische Staatskapelle Dresden, Colin Davis, conductor"
    REM DATE 1994
    FLAGS PRE
    INDEX 01 00:00:00
    FILE "04 - Symphonie Nr. 5 B-dur, D. 485 - IV. Allegro vivace.flac" WAVE
    TRACK 04 AUDIO
    TITLE "Symphonie Nr. 5 B-dur, D. 485: IV. Allegro vivace"
    PERFORMER "Sächsische Staatskapelle Dresden, Colin Davis, conductor"
    REM DATE 1994
    FLAGS PRE
    INDEX 01 00:00:00
    FILE "05 - Symphonie Nr. 6 C-dur (''Kleine''), D. 589 - I. Adagio. - Allegro.flac" WAVE
    TRACK 05 AUDIO
    TITLE "Symphonie Nr. 6 C-dur («Kleine»), D. 589: I. Adagio. — Allegro"
    PERFORMER "Sächsische Staatskapelle Dresden, Colin Davis, conductor"
    REM DATE 1994
    FLAGS PRE
    INDEX 01 00:00:00
    FILE "06 - Symphonie Nr. 6 C-dur (''Kleine''), D. 589 - II. Andante.flac" WAVE
    TRACK 06 AUDIO
    TITLE "Symphonie Nr. 6 C-dur («Kleine»), D. 589: II. Andante"
    PERFORMER "Sächsische Staatskapelle Dresden, Colin Davis, conductor"
    REM DATE 1994
    FLAGS PRE
    INDEX 01 00:00:00
    FILE "07 - Symphonie Nr. 6 C-dur (''Kleine''), D. 589 - III. Scherzo. Presto.flac" WAVE
    TRACK 07 AUDIO
    TITLE "Symphonie Nr. 6 C-dur («Kleine»), D. 589: III. Scherzo: Presto"
    PERFORMER "Sächsische Staatskapelle Dresden, Colin Davis, conductor"
    REM DATE 1994
    FLAGS PRE
    INDEX 01 00:00:00
    FILE "08 - Symphonie Nr. 6 C-dur (''Kleine''), D. 589 - IV. Allegro moderato.flac" WAVE
    TRACK 08 AUDIO
    TITLE "Symphonie Nr. 6 C-dur («Kleine»), D. 589: IV. Allegro moderato"
    PERFORMER "Sächsische Staatskapelle Dresden, Colin Davis, conductor"
    REM DATE 1994
    FLAGS PRE
    INDEX 01 00:00:00

    CD 4: Symphonie Nr. 9

    TITLE "Franz Schubert: Die Symphonien"
    PERFORMER "Colin Davis"
    REM DISCID 2C0E8804
    REM COMMENT "ExactAudioCopy v0.99pb5"
    FILE "01 - Symphonie Nr. 9 C-dur (''Grosse''), D. 944 - I. Andante. - Allegro ma non troppo.flac" WAVE
    TRACK 01 AUDIO
    TITLE "Symphonie Nr. 9 C-dur («Große»), D. 944: I. Andante. — Allegro ma non troppo"
    PERFORMER "Sächsische Staatskapelle Dresden, Colin Davis, conductor"
    REM DATE 1996
    INDEX 01 00:00:00
    FILE "02 - Symphonie Nr. 9 C-dur (''Grosse''), D. 944 - II. Andante con moto.flac" WAVE
    TRACK 02 AUDIO
    TITLE "Symphonie Nr. 9 C-dur («Große»), D. 944: II. Andante con moto"
    PERFORMER "Sächsische Staatskapelle Dresden, Colin Davis, conductor"
    REM DATE 1996
    INDEX 01 00:00:00
    TRACK 03 AUDIO
    TITLE "Symphonie Nr. 9 C-dur («Große»), D. 944: III. Scherzo: Allegro vivace"
    PERFORMER "Sächsische Staatskapelle Dresden, Colin Davis, conductor"
    REM DATE 1996
    INDEX 00 13:56:74
    FILE "03 - Symphonie Nr. 9 C-dur (''Grosse''), D. 944 - III. Scherzo. Allegro vivace.flac" WAVE
    INDEX 01 00:00:00
    FILE "04 - Symphonie Nr. 9 C-dur (''Grosse''), D. 944 - IV. Allegro vivace.flac" WAVE
    TRACK 04 AUDIO
    TITLE "Symphonie Nr. 9 C-dur («Große»), D. 944: IV. Allegro vivace"
    PERFORMER "Sächsische Staatskapelle Dresden, Colin Davis, conductor"
    REM DATE 1996
    INDEX 01 00:00:00
    -
    Franz Schubert — каталог раздач на rutracker.orgВсе мои раздачи / All my releases



  • Показать сообщения:    

    Текущее время: 03-Дек 16:46

    Часовой пояс: UTC + 3


    Вы не можете начинать темы
    Вы не можете отвечать на сообщения
    Вы не можете редактировать свои сообщения
    Вы не можете удалять свои сообщения
    Вы не можете голосовать в опросах
    Вы не можете прикреплять файлы к сообщениям
    Вы не можете скачивать файлы