Лицом к лицу / Face to Face: Шанель и Скиапарелли, Рубинштейн и Арден, Лагерфельд и Сен-Лоран, Джобс и Гейтс, Каллас и Тебальди, Пепси и Кока-кола, Королев и фон Браун, Пума и Адидас [2014, Документальный ТВ сериал, биография, TVRip]Rus Sub


Статистика раздачи [Обновить пиров]
Размер:  5.6 GB   |    Зарегистрирован:  8 месяцев 14 дней   |    Скачан:  0 раз

Полного источника не было: Никогда

 
   
 
 
 

[Цитировать]

Лицом к лицу / Face to Face
Год выпуска: 2014
Страна: Франция, Италия
Жанр: Документальный ТВ сериал, биография
Продолжительность: ~00:53:00 (1 серия)
Перевод: Субтитры
Русские субтитры: есть
Формат субтитров: hardsub (неотключаемые)
Оригинальная аудиодорожка: английский
Телеканал: Аруц 8 (Израиль)
Описание: "Лицом к лицу" - это сравнительная серия портретов, показывающая двух известных деятелей, сквозь призму их соперничества, таких как Шанель и Скиапарелли, Рубинштейн и Арден, Лагерфельд и Сен-Лоран, битва века между Пепси и Кока-колой, братьми Дасслер, основателями Пумы и Адидас и других. Все они были революционными лидерами в своих областях: политике, науке, технологиях, экономике или искусстве. Для каждого из них соперничество стало движущей силой. "Лицом к лицу - это история о поединке между двумя всемирно известными личностями, сложность и неоднозначность их сосуществования на публике, борьба за власть и влияние, падения и моменты славы. В эпизодах "Лицом к лицу" мы узнаем истории знаменитых людей, которые провели свою жизнь в борьбе с их вечными соперниками, чтобы достичь рекордных достижений.
Доп. информация: Запись с канала "Аруц 8". Фильмы на английском языке с двойными субтитрами (вшитыми) на русском языке и иврите. Перевод: Виталий Заиченко (1,2,4), Ольга Еленицкая (3), Людмила Ярошевская (5,7), Виктор Халебский (6), Анна Мелехова (8). Субтитры: Дори Медиа от ЛТД.
Сэмпл: https://yadi.sk/i/Iv5nYlS0hNdur
качество: TVRip
формат: AVI
Видео: 1795 Кbps, 704х432 (1.630), 25.000 fps, MPEG-4 Visual (XviD)(Advanced Simple@L5)(BVOP2)
Аудио: 128 Kbps,48.0 KHz, 2 сhannels, MPEG Audio (MP3) (Version 1)(Layer 3)(Joint stereo/MS Stereo)

Список серий

1. Коко Шанель и Эльза Скиапарелли - Черное и розовое
2. Елена Рубинштейн и Элизабет Арден - Война Пудры
3. Карл Лагерфельд и Ив Сен-Лоран - Мода и страсть
4. Джобс и Гейтс - Хиппи и ботаник
5. Мария Каллас и Рената Тебальди - Тигрица и голубка
6. Пепси и Кока-кола - Битва века
7. Сергей Королев - Вернер фон Браун - Космическая гонка
8. Пума и Адидас - Негласное соперничество

MediaInfo

General
Complete name : D:\Face to Face\01-Chanel vs Schiaparelli.avi
Format : AVI
Format/Info : Audio Video Interleave
File size : 725 MiB
Duration : 52mn 27s
Overall bit rate : 1 933 Kbps
Writing library : VirtualDub-MPEG2 build 24600/release
Video
ID : 0
Format : MPEG-4 Visual
Format profile : Advanced Simple@L5
Format settings, BVOP : 2
Format settings, QPel : No
Format settings, GMC : No warppoints
Format settings, Matrix : Default (MPEG)
Codec ID : XVID
Codec ID/Hint : XviD
Duration : 52mn 27s
Bit rate : 1 795 Kbps
Width : 704 pixels
Height : 432 pixels
Display aspect ratio : 1.630
Frame rate : 25.000 fps
Color space : YUV
Chroma subsampling : 4:2:0
Bit depth : 8 bits
Scan type : Progressive
Compression mode : Lossy
Bits/(Pixel*Frame) : 0.236
Stream size : 673 MiB (93%)
Writing library : XviD 58
Audio
ID : 1
Format : MPEG Audio
Format version : Version 1
Format profile : Layer 3
Mode : Joint stereo
Mode extension : MS Stereo
Codec ID : 55
Codec ID/Hint : MP3
Duration : 52mn 27s
Bit rate mode : Constant
Bit rate : 128 Kbps
Channel(s) : 2 channels
Sampling rate : 48.0 KHz
Compression mode : Lossy
Stream size : 48.0 MiB (7%)
Alignment : Split accross interleaves
Interleave, duration : 40 ms (1.00 video frame)
Interleave, preload duration : 500 ms

Скриншоты

[teatrix.ru].t21524.torrent 
Торрент: Зарегистрирован [ 2016-03-20 12:29 ] · F65066D8F35D8D5205F2A84BEA014566641314F7

Скачать .torrent

Скачать

8 KB

Статус: проверено
Скачан: 0 раз
Размер: 5.6 GB
terms.php



Быстрый ответ

Имя:

      
Для отправки сообщений необходимо включить JavaScript
Показать сообщения:    

Текущее время: 04-Дек 11:09

Часовой пояс: UTC + 3


Вы можете начинать темы
Вы можете отвечать на сообщения
Вы не можете редактировать свои сообщения
Вы не можете удалять свои сообщения
Вы не можете голосовать в опросах
Вы не можете прикреплять файлы к сообщениям
Вы можете скачивать файлы