[TR24][OF] J.S. Bach - Arias with piccolo cello - Ensemble Pulcinella, Ophélie (Ophelie) Gaillard, Sandrine Piau, Emiliano Gonzalez Toro, Christophe Dumaux - 2012 (Classical)


Статистика раздачи [Обновить пиров]
Размер:  1.06 GB   |    Зарегистрирован:  8 месяцев 19 дней   |    Скачан:  1 раз

Полного источника не было: 1 месяц 6 дней

 
   
 
 
 

[Цитировать]

Bach Arias
Ensemble Pulcinella · Ophélie Gaillard
Sandrine Piau, Emiliano Gonzalez Toro, Christophe Dumaux
-Год издания: 2012 | Жанр: Classical
Издатель: Aparté | Продолжительность: 01:07:30
Наличие сканов: Sleeve- -Sandrine Piau (soprano), Christophe Dumaux (alto), Emiliano Gonzalez Toro (tenor)
Ensemble Pulcinella & Ophélie Gaillard (cello, direction)-Контейнер: FLAC (*.flac) | Тип рипа: tracks
Разрядность: 24bit / 88.2kHz | Количество каналов: 2.0
-Треклист
Johann Sebastian Bach (1685-1750)
01.Mein gläubiges Herze, BWV 68 (3:49)
02. Choral Schubler, BWV 645 No. 1 (3:46)
03. Woferne du den edlen Frieden, BWV 41 (8:45)
04. Ich, dein betrubtes Kind, BWV 199 (2:07)
05. Jesus ist ein guter Hirt, BWV 85 (3:15)
06. Ach bleib bei uns, Herr Jesu Christ, BWV 649 (4:20)
07. Ich bin herrlich, ich bin schon, BWV 49 (4:46)
08. Es dunket mich, ich seh dich kommen, BWV 175 (3:21)
09. Choral Schubler, BWV 650 No. 6 (3:58)
10. Bete aber auch dabei, BWV 115 (7:23)
11. Ich furchte nicht des Todes Schrecken, BWV 183 (7:53)
12. Es ist vollbracht, BWV 159 (4:52)
13. Ich ruf' zu dir, Herr Jesu Christ, BWV 639 (2:32)
14. Schalge doch, gewunschte Stunde, BWV 53 (6:42)

О релизе


On this breathtaking album, dedicated to the Cantor of Leipzig, Ophelie Gaillard has gathered her close team from the Pulcinella Ensemble and invited some of the most talented soloists: Sandrine Piau, Emiliano Gonzalez Toro and Christophe Dumaux. This program features the most astounding cantatas written by Johann Sebastian Bach from 1723 to 1750, interspersed with some of the masterpieces from the Schubler Chorales and Orgelbuchlein.
“Ophelie Galliard plays admirably: springy in fast passages...and soulful elsewhere...Good support and lovely obbligatos from Pulcinella.”
--Gramophone

ОтчётыДинамический диапазон

foobar2000 1.2.2 / Dynamic Range Meter 1.1.1
log date: 2015-06-21 00:35:58
--------------------------------------------------------------------------------
Analyzed: Ensemble Pulcinella, Ophélie Gaillard, Christophe Dumaux / Bach: Arias with piccolo cello (1-3)
Ensemble Pulcinella, Ophélie Gaillard, Emiliano Gonzalez Toro / Bach: Arias with piccolo cello (4-6)
Ensemble Pulcinella, Ophélie Gaillard, Sandrine Piau / Bach: Arias with piccolo cello (7-11)
Ensemble Pulcinella, Ophélie Gaillard / Bach: Arias with piccolo cello (12-14)
--------------------------------------------------------------------------------
DR Peak RMS Duration Track
--------------------------------------------------------------------------------
DR15 -1.11 dB -21.81 dB 3:15 ?-Jesus ist ein guter Hirt, BWV 85
DR17 -0.73 dB -22.74 dB 4:52 ?-Es ist vollbracht, BWV 159
DR17 -3.09 dB -23.88 dB 6:42 ?-Schalge doch, gewunschte Stunde, BWV 53
DR15 -4.50 dB -22.63 dB 8:45 ?-Woferne du den edlen Frieden, BWV 41
DR14 -6.54 dB -23.59 dB 3:21 ?-Es dunket mich, ich seh dich kommen, BWV 175
DR16 -3.24 dB -23.57 dB 7:53 ?-Ich furchte nicht des Todes Schrecken, BWV 183
DR15 -0.20 dB -18.84 dB 3:49 ?-Mein glaubiges Herze, BWV 68
DR12 -0.20 dB -18.25 dB 2:07 ?-Ich, dein betrubtes Kind, BWV 199
DR14 -0.20 dB -22.62 dB 4:20 ?-Ach bleib bei uns, Herr Jesu Christ, BWV 649
DR14 -1.69 dB -21.48 dB 4:46 ?-Ich bin herrlich, ich bin schon, BWV 49
DR13 -0.20 dB -19.96 dB 7:23 ?-Bete aber auch dabei, BWV 115
DR12 -5.51 dB -22.02 dB 3:46 ?-Choral Schubler, BWV 645 No. 1
DR11 -10.08 dB -24.41 dB 3:58 ?-Choral Schubler, BWV 650 No. 6
DR10 -11.92 dB -25.75 dB 2:32 ?-Ich ruf' zu dir, Herr Jesu Christ, BWV 639
--------------------------------------------------------------------------------
Number of tracks: 14
Official DR value: DR14
Samplerate: 88200 Hz
Channels: 2
Bits per sample: 24
Bitrate: 2191 kbps
Codec: FLAC
================================================================================

Скриншот спектра частот

Доп. информация

При скачивании, если необходимо, переименуйте папку, в которой будет находиться альбомБольшая просьба к скачавшим поддерживать раздачу! Помогайте другим, ведь вам тоже может понадобиться помощь!Не забываем говорить "Спасибо"!Комментарии приветствуются!
Ophélie Gaillard Hi-Res
[teatrix.ru].t21525.torrent 
Торрент: Зарегистрирован [ 2016-03-20 12:29 ] · 3A1102B3C0C7107B18C30210B58006EC0D8168D5

Скачать .torrent

Скачать

12 KB

Статус: проверено
Скачан: 1 раз
Размер: 1.06 GB
terms.php



Быстрый ответ

Имя:

      
Для отправки сообщений необходимо включить JavaScript
Показать сообщения:    

Текущее время: 09-Дек 08:51

Часовой пояс: UTC + 3


Вы можете начинать темы
Вы можете отвечать на сообщения
Вы не можете редактировать свои сообщения
Вы не можете удалять свои сообщения
Вы не можете голосовать в опросах
Вы не можете прикреплять файлы к сообщениям
Вы можете скачивать файлы