[TR24][OF] Robert Schumann: Cello Concerto; Franz (Ferenc) Liszt: Works for Cello & Piano - Ophélie (Ophelie) Gaillard, Delphine Bardin, Orchestre de la Radio Nationale de Roumanie, Soare Tiberiu - 2012 (Classical)


Статистика раздачи [Обновить пиров]
Размер:  618 MB   |    Зарегистрирован:  8 месяцев 21 день   |    Скачан:  0 раз

Полного источника не было: Никогда

 
   
 
 
 

[Цитировать]

Schumann · Liszt
Ophélie Gaillard · Delphine Bardin
Orchestre de la Radio Nationale de Roumanie · Soare Tiberiu
-Год издания: 2012 | Жанр: Classical
Издатель: Aparté | Продолжительность: 00:50:13
Наличие сканов: Sleeve, Digital Booklet- -Ophélie Gaillard - cello
Orchestre de la Radio Nationale de Roumanie, Tiberiu Soare (#1-3)
Delphine Bardin - piano (#4-8)-Контейнер: FLAC (*.flac) | Тип рипа: tracks
Разрядность: 24bit / 48kHz (#1-3), 88.2kHz (#4-8)
Количество каналов: 2.0
-Треклист
Robert Schumann (1810-1856)
Cello Concerto in A minor, Op. 129
01.I. Allegro - Nicht zu Schnell (11:20)
02. II. Adagio - Langsam (4:06)
03. III. Finale vivace - Sehr Lebhaft (7:44)
Franz Liszt (1811-1886)
04. Première Élégie (5:01)
05. Deuxième Élégie (4:44)
06. Romance oubliée (3:27)
07. Die Zelle in Nonnenwerth (5:30)
08. La lugubre gondole (8:22)

О релизе


Sensitively and humble
After Dreams, and the Bach Cello Suites, two recordings that enjoyed both critical and public acclaim, Ophélie Gaillard turns here to Robert Schumann's Cello Concerto and the complete music for cello and piano of Franz Liszt. The result of this juxtaposition of two worlds, those of two composers of great sensitivity, is a programme captivatingly combining passion with an expression of the mysteries of life. Once again we see the eclecticism that Ophélie Gaillard has always shown. For the Schumann Concerto, this brilliant young cellist is accompanied by the National Radio Orchestra of Romania (which has played with the likes of Yehudi Menuhin, David Oistrakh, Martha Argerich and Mstislav Rostropovich), under the young conductor Tiberiu Soare (a favourite of the singer Angela Gheorghiu).
Schumann, who took up the cello at one time, attains an expressive maturity in his Concerto that enables him to bring out all the warmth and sensuality of the instrument, which he presents in an orchestral setting of admirable depth. For the second part of the programme, Ophélie Gaillard is joined by the fine pianist Delphine Bardin (winner of the coveted Clara Haskil Prize). These pieces show the soberness and bold language that characterise Liszt's late works. He had tamed his virtuosity considerably by then and his harmony shows him breaking away more and more from tonality (Liszt declared to an astonished Vincent d'Indy that 'he aspired to do away with tonality'). They also immerse us in surprising environments, sometimes haunting, sometimes very bleak – a world of subtle emotions just waiting to be discovered!

ОтчётыДинамический диапазон

foobar2000 1.2.2 / Dynamic Range Meter 1.1.1
log date: 2015-06-20 23:24:30
--------------------------------------------------------------------------------
Analyzed: Ophélie Gaillard, Orchestre de la Radio Nationale Roumaine, Tiberiu Soare / Schumann - Liszt
--------------------------------------------------------------------------------
DR Peak RMS Duration Track
--------------------------------------------------------------------------------
DR15 -1.90 dB -23.19 dB 11:20 ?-Cello Concerto in A minor, Op. 129: I. Allegro - Nicht zu Schnell
DR15 -4.51 dB -27.35 dB 4:06 ?-Cello Concerto in A minor, Op. 129: II. Adagio - Langsam
DR15 -0.64 dB -21.38 dB 7:44 ?-Cello Concerto in A minor, Op. 129: III. Finale vivace - Sehr Lebhaft
--------------------------------------------------------------------------------
Number of tracks: 3
Official DR value: DR15
Samplerate: 48000 Hz
Channels: 2
Bits per sample: 24
Bitrate: 1422 kbps
Codec: FLAC
================================================================================
--------------------------------------------------------------------------------
Analyzed: Ophélie Gaillard, Delphine Bardin / Schumann - Liszt
--------------------------------------------------------------------------------
DR Peak RMS Duration Track
--------------------------------------------------------------------------------
DR13 -1.65 dB -20.69 dB 5:01 ?-Première Élégie
DR13 -1.49 dB -21.11 dB 4:44 ?-Deuxième Élégie
DR14 -2.33 dB -22.51 dB 3:27 ?-Romance oubliée
DR14 -2.33 dB -23.26 dB 5:30 ?-Die Zelle in Nonnenwerth
DR15 -2.33 dB -23.29 dB 8:22 ?-La lugubre gondole
--------------------------------------------------------------------------------
Number of tracks: 5
Official DR value: DR14
Samplerate: 88200 Hz
Channels: 2
Bits per sample: 24
Bitrate: 1936 kbps
Codec: FLAC
================================================================================

Скриншоты спектра частот

Доп. информация

При скачивании, если необходимо, переименуйте папку, в которой будет находиться альбомБольшая просьба к скачавшим поддерживать раздачу! Помогайте другим, ведь вам тоже может понадобиться помощь!Не забываем говорить "Спасибо"!Комментарии приветствуются!
Ophélie Gaillard Hi-Res
[teatrix.ru].t21526.torrent 
Торрент: Зарегистрирован [ 2016-03-20 12:29 ] · FE7C9E760A0E02D8AAFB2F161E885D5EDF53E087

Скачать .torrent

Скачать

13 KB

Статус: проверено
Скачан: 0 раз
Размер: 618 MB
terms.php



Быстрый ответ

Имя:

      
Для отправки сообщений необходимо включить JavaScript
Показать сообщения:    

Текущее время: 10-Дек 21:31

Часовой пояс: UTC + 3


Вы можете начинать темы
Вы можете отвечать на сообщения
Вы не можете редактировать свои сообщения
Вы не можете удалять свои сообщения
Вы не можете голосовать в опросах
Вы не можете прикреплять файлы к сообщениям
Вы можете скачивать файлы