Доницетти - Фаворитка / Donizetti - La Favorite (La Favorita) (Kate Aldrich, Yijie Shi, Ludovic Tezier) Антонелло Аллеманди / Antonello Allemandi (Vincent Boussard) [2013, Opera, HDRip-AVC] Sub [Русские][English, French, German, Japanese, Korean]


 

[Цитировать]

-Оперный театр Тулузы (Théâtre du Capitole) представляет
ГАЭТАНО ДОНИЦЕТТИ
♠ Ф А В О Р И Т К А ♠
оригинальная французская редакция (1840)
Либретто Альфонса Руайе и Гюстава Вёза (при участии Эжена Скриба)
-- РЕЖИССЁР Венсан БУССАРVincent Boussard
Язык: Французский
Субтитры/Subtitles: РУССКИЕ,
English, French, German, Japanese, Korean
Продолжительность: 152 min.
Альфонс XI Людовик ТЕЗЬЕ Ludovic Tézier
Леонора ди Гусман Кейт ОЛДРИЧ Kate Aldrich
Фердинанд Ицзе ШИ Yijie Shi
Балтазар Джованни ФУРЛАНЕТТО Giovanni Furlanetto
Инесс Мария-Бенедикта СУКЕ Marie-Bénédicte Souquet
Дон Гаспар Ален ГАБРИЕЛ Alain Gabriel

ХОР и ОРКЕСТР театра ТУЛУЗЫ
ДИРИЖЁР Антонелло АЛЛЕМАНДИ Antonello Allemandi
Качество видео: HDRip-AVC
♫ Sample ♫
Исходник: BDRip-AVC 1080 by Vilboa
Формат/Контейнер: MKV
Аудио кодек: DTS
Видео поток: H.264, 1280x720, 4000 kbps, 29,970 fps.
Аудио поток: Français, 1509 kbps, 48,0 KHz, 24 bit, 6 ch
Навигация по главам: Есть

Скриншоты

MediaInfo

-

x264.log


avs [info]: 1280x720p 1:1 @ 30000/1001 fps (cfr)
x264 [info]: using SAR=1/1
x264 [info]: using cpu capabilities: MMX2 SSE2Fast LZCNT
x264 [info]: profile High, level 4.1
x264 [info]: frame I:1765 Avg QP:12.77 size: 95246
x264 [info]: frame P:140864 Avg QP:14.57 size: 25086
x264 [info]: frame B:131097 Avg QP:16.52 size: 6594
x264 [info]: consecutive B-frames: 20.9% 42.4% 10.0% 26.7%
x264 [info]: mb I I16..4: 11.4% 72.2% 16.3%
x264 [info]: mb P I16..4: 4.3% 10.2% 1.1% P16..4: 37.6% 23.0% 11.4% 0.0% 0.0% skip:12.4%
x264 [info]: mb B I16..4: 0.6% 0.7% 0.0% B16..8: 38.9% 9.3% 1.9% direct: 4.5% skip:44.1% L0:41.4% L1:49.7% BI: 8.9%
x264 [info]: 8x8 transform intra:65.0% inter:72.4%
x264 [info]: direct mvs spatial:89.0% temporal:11.0%
x264 [info]: coded y,uvDC,uvAC intra: 41.7% 65.1% 37.0% inter: 21.1% 32.1% 2.6%
x264 [info]: i16 v,h,dc,p: 60% 15% 11% 14%
x264 [info]: i8 v,h,dc,ddl,ddr,vr,hd,vl,hu: 14% 7% 38% 6% 7% 8% 6% 7% 7%
x264 [info]: i4 v,h,dc,ddl,ddr,vr,hd,vl,hu: 20% 9% 21% 8% 10% 10% 7% 8% 7%
x264 [info]: i8c dc,h,v,p: 57% 19% 18% 6%
x264 [info]: Weighted P-Frames: Y:0.8% UV:0.1%
x264 [info]: ref P L0: 65.0% 5.5% 19.0% 10.4% 0.1%
x264 [info]: ref B L0: 85.0% 13.1% 1.8%
x264 [info]: ref B L1: 96.2% 3.8%
x264 [info]: kb/s:3999.72
-
General
Unique ID : 173605656270354154783334143972448947637 (0x829B3BB282BDEB6DAAD3643C66C44DB5)
Complete name : La Favorite (Toulouse) 2014.mkv
Format : Matroska
Format version : Version 4 / Version 2
File size : 5.87 GiB
Duration : 2h 32mn
Overall bit rate : 5 525 Kbps
Encoded date : UTC 2015-06-18 17:36:10
Writing application : mkvmerge v7.8.0 ('River Man') 32bit built on Mar 27 2015 16:18:02
Writing library : libebml v1.3.1 + libmatroska v1.4.2
Video
ID : 1
Format : AVC
Format/Info : Advanced Video Codec
Format profile : High@L4.1
Format settings, CABAC : Yes
Format settings, ReFrames : 4 frames
Codec ID : V_MPEG4/ISO/AVC
Duration : 2h 32mn
Bit rate : 4 000 Kbps
Width : 1 280 pixels
Height : 720 pixels
Display aspect ratio : 16:9
Frame rate mode : Constant
Frame rate : 29.970 fps
Color space : YUV
Chroma subsampling : 4:2:0
Bit depth : 8 bits
Scan type : Progressive
Bits/(Pixel*Frame) : 0.145
Stream size : 4.15 GiB (71%)
Writing library : x264 core 146 r2538 121396c
Encoding settings : cabac=1 / ref=3 / deblock=1:0:0 / analyse=0x3:0x113 / me=umh / subme=9 / psy=1 / psy_rd=1.00:0.00 / mixed_ref=1 / me_range=16 / chroma_me=1 / trellis=1 / 8x8dct=1 / cqm=0 / deadzone=21,11 / fast_pskip=1 / chroma_qp_offset=-2 / threads=4 / lookahead_threads=1 / sliced_threads=0 / nr=0 / decimate=1 / interlaced=0 / bluray_compat=0 / constrained_intra=0 / bframes=3 / b_pyramid=2 / b_adapt=1 / b_bias=0 / direct=3 / weightb=1 / open_gop=0 / weightp=2 / keyint=300 / keyint_min=29 / scenecut=40 / intra_refresh=0 / rc_lookahead=40 / rc=2pass / mbtree=1 / bitrate=4000 / ratetol=1.0 / qcomp=0.60 / qpmin=10 / qpmax=51 / qpstep=4 / cplxblur=20.0 / qblur=0.5 / vbv_maxrate=62500 / vbv_bufsize=78125 / nal_hrd=none / filler=0 / ip_ratio=1.40 / aq=1:1.00
Language : English
Default : Yes
Forced : No
Audio
ID : 2
Format : DTS
Format/Info : Digital Theater Systems
Mode : 16
Format settings, Endianness : Big
Codec ID : A_DTS
Duration : 2h 32mn
Bit rate mode : Constant
Bit rate : 1 509 Kbps
Channel(s) : 6 channels
Channel positions : Front: L C R, Side: L R, LFE
Sampling rate : 48.0 KHz
Bit depth : 24 bits
Compression mode : Lossy
Stream size : 1.60 GiB (27%)
Language : French
Default : Yes
Forced : No
Text #1
ID : 3
Format : UTF-8
Codec ID : S_TEXT/UTF8
Codec ID/Info : UTF-8 Plain Text
Language : Russian
Default : Yes
Forced : No
Text #2
ID : 4
Format : VobSub
Muxing mode : zlib
Codec ID : S_VOBSUB
Codec ID/Info : The same subtitle format used on DVDs
Language : English
Default : No
Forced : No
Text #3
ID : 5
Format : VobSub
Muxing mode : zlib
Codec ID : S_VOBSUB
Codec ID/Info : The same subtitle format used on DVDs
Language : French
Default : No
Forced : No
Text #4
ID : 6
Format : VobSub
Muxing mode : zlib
Codec ID : S_VOBSUB
Codec ID/Info : The same subtitle format used on DVDs
Language : German
Default : No
Forced : No
Text #5
ID : 7
Format : VobSub
Muxing mode : zlib
Codec ID : S_VOBSUB
Codec ID/Info : The same subtitle format used on DVDs
Language : Japanese
Default : No
Forced : No
Text #6
ID : 8
Format : VobSub
Muxing mode : zlib
Codec ID : S_VOBSUB
Codec ID/Info : The same subtitle format used on DVDs
Language : Korean
Default : No
Forced : No
Menu
00:05:55.722 : en:Act 1
00:39:15.286 : en:Act 2
01:08:46.193 : en:Act 3
01:52:27.207 : en:Act 4



Показать сообщения:    

Текущее время: 04-Дек 06:57

Часовой пояс: UTC + 3


Вы не можете начинать темы
Вы не можете отвечать на сообщения
Вы не можете редактировать свои сообщения
Вы не можете удалять свои сообщения
Вы не можете голосовать в опросах
Вы не можете прикреплять файлы к сообщениям
Вы не можете скачивать файлы