(Orchestral) Gustav Mahler - Symphonie Nr.9 (BBC Symphony Orchestra - Bruno Maderna) - Arkadia - 1991, FLAC (image+.cue) lossless


 

[Цитировать]

MADERNA
MAHLER
SYMPHONIE 9
--- Жанр: Orchestral
Страна-производитель диска: Italy
Год издания диска: 1991
Издатель (лейбл): Arkadia
Дата записи: 31.03.1971
Аудиокодек: FLAC
Тип рипа: image+.cue
Битрейт аудио: lossless
Продолжительность: 78'24''
Источник: собственный рип
Наличие сканов в содержимом раздачи: да
Треклист:
Mahler - Symphonie Nr.9:
[01] I. Andante comodo
[02] II. In tempo eines gemächlichen Ländlers
[03] III. Rondo-Burleske
[04] IV. Adagio
Исполнители:
BBC Symphony Orchestra - Bruno Maderna-

Лог создания рипа

Exact Audio Copy V1.0 beta 4 from 7. December 2014
EAC extraction logfile from 14. May 2015, 21:45
BBC Symphony Orchestra - Bruno Maderna / Mahler 9
Used drive : HL-DT-STDVD+-RW GU90N Adapter: 1 ID: 0
Read mode : Secure
Utilize accurate stream : Yes
Defeat audio cache : Yes
Make use of C2 pointers : No
Read offset correction : 102
Overread into Lead-In and Lead-Out : No
Fill up missing offset samples with silence : Yes
Delete leading and trailing silent blocks : No
Null samples used in CRC calculations : Yes
Used interface : Native Win32 interface for Win NT & 2000
Used output format : User Defined Encoder
Selected bitrate : 1024 kBit/s
Quality : High
Add ID3 tag : No
Command line compressor : C:\Program Files (x86)\FLAC\flac.exe
Additional command line options : -T "COMMENT=rip by el coronel" -8 -V %source%
TOC of the extracted CD
Track | Start | Length | Start sector | End sector
---------------------------------------------------------
1 | 0:00.33 | 29:23.00 | 33 | 132257
2 | 29:23.33 | 14:19.37 | 132258 | 196719
3 | 43:42.70 | 13:11.50 | 196720 | 256094
4 | 56:54.45 | 21:30.13 | 256095 | 352857
Range status and errors
Selected range
Filename F:\Music\Mahler 9 Maderna (Arkadia)\CD.wav
Peak level 78.7 %
Extraction speed 5.0 X
Range quality 99.9 %
Test CRC B19F09F5
Copy CRC B19F09F5
Copy OK
No errors occurred
AccurateRip summary
Track 1 not present in database
Track 2 not present in database
Track 3 not present in database
Track 4 not present in database
None of the tracks are present in the AccurateRip database
End of status report
---- CUETools DB Plugin V2.1.4
[CTDB TOCID: YLhRFTUOum1x6XhRYXCOkk39kjI-] disk not present in database
Submit result: YLhRFTUOum1x6XhRYXCOkk39kjI- has been uploaded
==== Log checksum 8A0D7787655EC6297EABE20110A07530CF64E42CF703613D016FE012AB7F0204 ====

Содержание индексной карты (.CUE)

REM GENRE Classical
REM DATE 1991
REM DISCID 31126004
REM COMMENT "ExactAudioCopy v1.0b4"
PERFORMER "BBC Symphony Orchestra - Bruno Maderna"
TITLE "Mahler 9"
FILE "CD.flac" WAVE
TRACK 01 AUDIO
TITLE "I. Andante comodo"
PERFORMER "BBC Symphony Orchestra - Bruno Maderna"
INDEX 00 00:00:00
INDEX 01 00:00:33
TRACK 02 AUDIO
TITLE "II. Im tempo eines gemachlichen Landlers"
PERFORMER "BBC Symphony Orchestra - Bruno Maderna"
INDEX 01 29:23:33
TRACK 03 AUDIO
TITLE "III. Rondo-Burleske"
PERFORMER "BBC Symphony Orchestra - Bruno Maderna"
INDEX 01 43:42:70
TRACK 04 AUDIO
TITLE "IV. Adagio"
PERFORMER "BBC Symphony Orchestra - Bruno Maderna"
INDEX 01 56:54:45



Показать сообщения:    

Текущее время: 06-Дек 13:15

Часовой пояс: UTC + 3


Вы не можете начинать темы
Вы не можете отвечать на сообщения
Вы не можете редактировать свои сообщения
Вы не можете удалять свои сообщения
Вы не можете голосовать в опросах
Вы не можете прикреплять файлы к сообщениям
Вы не можете скачивать файлы