(Classical, Percussion) Четыре четверти - На Марлинской аллее - 2013, FLAC (image+.cue) lossless


 

[Цитировать]

Четыре четверти - На Марлинской аллее
Жанр: Classical, Percussion
Страна-производитель диска: Россия
Год издания диска: 2013
Аудиокодек: FLAC
Тип рипа: image+.cue
Битрейт аудио: lossless
Продолжительность: 01:05:15
Источник: собственный рип
Наличие сканов в содержимом раздачи: да
Треклист:
01. Т. Альбинони / Р. Джазотто - Адажио
02. Дж. Каччини / В. Вавилов - Аве Мария
03. Ф. Шуберт - Аве Мария
04. Ш. Гуно / И.С. Бах - Аве Мария
05. И.С. Бах - Ария из сюиты №3
06. И.С. Бах - Токката и фуга (ре минор)
07. А. Вивальди / И.С. Бах - Ларго [концерт для 2-х скрипок с оркестром №11 соч. 3 (ре минор)]
08. А. Вивальди - Аллегро [концерт для 2-х скрипок с оркестром №8 соч. 3 (ля минор)]
09. А. Марчелло - Адажио [концерт для гобоя с оркестром (ре минор)]
10. В.А. Моцарт - Романс «Маленькая ночная серенада» II ч.
11. В.А. Моцарт - Анданте (из концерта №23 для фортепиано с оркестром)
12. Ф. Шопен - Ноктюрн (ми бемоль мажор)
13. Ф. Шопен - Прелюдия (ми минор)
14. Ф. Шопен - Ноктюрн (до диез минор)
15. М. Огинский - Полонез «Прощание с Родиной»
16. Э. Григ - В пещере горного короля (из сюиты «Пер Гюнт»)
17. В.А. Моцарт - Фантазия №3 (вступление)
18. Г. Доницетти - Романс Неморино (из оперы «Любовный напиток»)
19. В. Беллини - Ария Нормы (из оперы «Норма»)
Описание:
Лауреат международных конкурсов, ансамбль ударных инструментов «Четыре четверти» был создан в 2002 году выпускниками Санкт-Петербургской государственной консерватории. Отличительной чертой коллектива является уникальный синтез классической музыки и звучания клавишных ударных инструментов: ксилофона, вибрафона, маримбы, колокольчиков.
В репертуаре ансамбля популярная классическая музыка, исполняемая на мелодических ударных инструментах. Аранжировки инструментальной и оркестровой классики для ударных инструментов делают сами участники ансамбля.
Исполнители:
Никита Пономарёв - вибрафон (2-4, 6-8, 10, 11, 13-19), маримба (1, 5, 9, 12), колокольчики (1);
Кирилл Ксенофонтов - маримба (1-11, 13-19), вибрафон (12);
Вадим Григорьев - маримба (2-4, 6-8, 10-19), вибрафон (1, 5, 9), переложения.
Звукорежиссер Алехандро Контрерас.
Официальный сайт
Консервы в мп3 Четыре четверти - На Марлинской аллее - 2013, MP3 (tracks) 320 kbps

Лог создания рипа

Exact Audio Copy V1.0 beta 6 from 9. April 2015
EAC extraction logfile from 16. June 2015, 21:03
Четыре Четверти / На Марлинской аллее
Used drive : Optiarc DVD RW AD-7760H Adapter: 1 ID: 0
Read mode : Secure
Utilize accurate stream : Yes
Defeat audio cache : Yes
Make use of C2 pointers : No
Read offset correction : 48
Overread into Lead-In and Lead-Out : No
Fill up missing offset samples with silence : Yes
Delete leading and trailing silent blocks : No
Null samples used in CRC calculations : Yes
Used interface : Native Win32 interface for Win NT & 2000
Used output format : Internal WAV Routines
Sample format : 44.100 Hz; 16 Bit; Stereo
TOC of the extracted CD
Track | Start | Length | Start sector | End sector
---------------------------------------------------------
1 | 0:00.00 | 4:59.59 | 0 | 22483
2 | 4:59.59 | 4:26.65 | 22484 | 42498
3 | 9:26.49 | 4:20.51 | 42499 | 62049
4 | 13:47.25 | 3:07.39 | 62050 | 76113
5 | 16:54.64 | 3:12.63 | 76114 | 90576
6 | 20:07.52 | 2:58.65 | 90577 | 103991
7 | 23:06.42 | 3:33.62 | 103992 | 120028
8 | 26:40.29 | 3:16.43 | 120029 | 134771
9 | 29:56.72 | 4:06.35 | 134772 | 153256
10 | 34:03.32 | 5:54.44 | 153257 | 179850
11 | 39:58.01 | 4:45.65 | 179851 | 201290
12 | 44:43.66 | 4:12.09 | 201291 | 220199
13 | 48:56.00 | 2:04.25 | 220200 | 229524
14 | 51:00.25 | 3:43.57 | 229525 | 246306
15 | 54:44.07 | 3:17.10 | 246307 | 261091
16 | 58:01.17 | 2:38.01 | 261092 | 272942
17 | 60:39.18 | 0:40.55 | 272943 | 275997
18 | 61:19.73 | 1:52.17 | 275998 | 284414
19 | 63:12.15 | 2:02.59 | 284415 | 293623
Range status and errors
Selected range
Filename F:\Temp\Четыре Четверти - На Марлинской аллее (2013).wav
Peak level 98.8 %
Extraction speed 2.1 X
Range quality 100.0 %
Test CRC 55C2D2E8
Copy CRC 55C2D2E8
Copy OK
No errors occurred
AccurateRip summary
Track 1 not present in database
Track 2 not present in database
Track 3 not present in database
Track 4 not present in database
Track 5 not present in database
Track 6 not present in database
Track 7 not present in database
Track 8 not present in database
Track 9 not present in database
Track 10 not present in database
Track 11 not present in database
Track 12 not present in database
Track 13 not present in database
Track 14 not present in database
Track 15 not present in database
Track 16 not present in database
Track 17 not present in database
Track 18 not present in database
Track 19 not present in database
None of the tracks are present in the AccurateRip database
End of status report
---- CUETools DB Plugin V2.1.6
[CTDB TOCID: PhR54w5fNGmcmpOt6rchSaI9iL0-] found
Submit result: Время ожидания операции истекло
Track | CTDB Status
1 | (6/6) Accurately ripped
2 | (6/6) Accurately ripped
3 | (6/6) Accurately ripped
4 | (6/6) Accurately ripped
5 | (6/6) Accurately ripped
6 | (6/6) Accurately ripped
7 | (6/6) Accurately ripped
8 | (6/6) Accurately ripped
9 | (6/6) Accurately ripped
10 | (6/6) Accurately ripped
11 | (6/6) Accurately ripped
12 | (6/6) Accurately ripped
13 | (6/6) Accurately ripped
14 | (6/6) Accurately ripped
15 | (6/6) Accurately ripped
16 | (6/6) Accurately ripped
17 | (6/6) Accurately ripped
18 | (6/6) Accurately ripped
19 | (6/6) Accurately ripped
==== Log checksum EA6111EB73B75FB96536A0529D1418AD1F6917BEBBBCA75484973AA17F33429A ====



Показать сообщения:    

Текущее время: 08-Дек 19:03

Часовой пояс: UTC + 3


Вы не можете начинать темы
Вы не можете отвечать на сообщения
Вы не можете редактировать свои сообщения
Вы не можете удалять свои сообщения
Вы не можете голосовать в опросах
Вы не можете прикреплять файлы к сообщениям
Вы не можете скачивать файлы