(Opera) Massenet - Le jongleur de Notre-Dame (Vanzo. Massard, Bastin - Dervaux 1973) • La Navaraise (Moizan, Vanzo, Mars - Hartemann 1963) • Bonustracks Le Jongleur/La Navaraise - 2004, APE (image+.cue) lossless


 

[Цитировать]

Jules Massenet - Le jongleur de Notre-Dame • La Navarraise
Жанр: Opera
Страна-производитель диска: Portugal
Год издания диска: 2004
Издатель (лейбл): Gala
Номер по каталогу: GL. 100.747
Дата записи: 1963-1973
Аудиокодек: APE
Тип рипа: image+.cue
Битрейт аудио: lossless
Продолжительность: 71'08+77'08
Источник: собственный рип
Наличие сканов в содержимом раздачи: да
Треклист / Исполнители:
Le jongleur de Notre-Dame
Треклист:
Disc 1
1. Act 1. Scene 1. Dansez la Begerette
2. Act 1. Scene 1. C'est un accord de vièle... Un jongleur
3. Act 1. Scene 2. Place au roi des rongleurs
4. Act 1. Scene 2. Gentil roi, choisis ta reine
5. Act 1. Scene 2. Boniment: Voulez-vous des tours de jonglerie
6. Act 1. Scene 2. Alleluia du vin: Le vin, c'est Dieu le Père
7. Act 1. Scene 2. Hors d'ici, troupe infâme
8. Act 1. Scene 2. Il pleure... Tu seras pardonné
9. Act 1. Scene 2. Belle maîtresse en vérité
10. Act 1. Scene 2. Pour la Viegre d'abord
11. Act 1. Scene 2. Le Benedicite: A table! Et qu'un bon déjeuner
12. Act 2. Prélude
13. Act 2. Scene 1. Choeur des moines: Ave rosa speciosa
14. Act 2. Scene 1. La cuisine est bonne au couvent
15. Act 2. Scene 1. Mais dans ce coin solitaire
16. Act 2. Scene 1. Ô Frère Jean, quelle paresse
17. Act 2. Scene 1. Ah! Mes frères, je connais ma triste indignité
18. Act 2. Scene 1. Jongleur, piteux métier
19. Act 2. Scene 1. Vous oubliez, mon frère, la peinture
20. Act 2. Scene 1. Non pas, à place d'honneur
21. Act 2. Scene 1. Pour moi, je me figure
22. Act 2. Scene 1. Quoi, mes frères!
23. Act 2. Scene 2. Va, Frère Jean, ne les envie
24. Act 2. Scene 2. La vierge entend fort bien
25. Act 2. Scene 2. Légende de la sauge: Marie, avec l'enfant Jésus
26. Act 2. Scene 3. Vierge, mère d'amour
27. Act 3. Scene 1. Ave, Céleste
28. Act 3. Scene 2. Mère adorable de Jésus
29. Act 3. Scene 2. Boniment: Place, place, silence
30. Act 3. Scene 2. Chanson de guerre: Il fait beau voir
31. Act 3. Scene 2. Romance d'amour: Belle Doètte
Disc 2
1. Act 3. Scene 2. Le jeu de Robin et Marion: A l'orée du joli bocage
2. Act 3. Scene 3. Danse du jongleur: Sacrilège
3. Act 3. Scene 3. Le Miracle: Arriève tous!
4. Act 3. Scene 3. Hosannah! Gloire à Jean!
5. Act 3. Scene 3. C'est le Prieur!
6. Act 3. Scene 3. Spectacle radieux
Jules Massenet - Le jongleur de Notre-Dame
Opera in 3 acts
Libretto by Maurice Léna
Jean - Alain Vanzo, tenor
Frère Boniface - Robert Massard, baritone
Le Prieur - Jules Bastin, bass
Le Moine poète - Jean Dupouy, tenor
Le Moine peintre - Claude Meloni, baritone
Le Moine musicien - Yves Bisson, baritone
Le Moine sculpteur - Pierre Thau, bass
Deux Anges - Christiane Issartel, Jeanine Collard - soprano
Orchestre Philharmonique et Choeurs de l'ORTF
Conductor: Pierre Dervaux
Synopsis
Place: France
Time: Medieval period
Jean, a juggler, is severely taken to task by the Prior for singing vulgar songs outside the local monastery.
Seeing that Jean is filled with remorse, the Prior asks him to join the order of monks.
Jean does so, and is befriended by the monastery's cook, Boniface who tells him the legend of the sagebush which opened its branches to shelter the Infant Jesus as He slept.
When Jean sees that the other monks are offering lavish and beautiful gifts to the newly completed statue of the Virgin Mary, he, having no real gift, resolves to do what he can do best.
He sneaks into the chapel late at night and juggles before the statue until he collapses from exhaustion.
The other monks enter, horrified, and are about to seize Jean to reprimand him for blasphemy.
A heavenly light begins to glow and a miracle occurs — the statue of the Virgin comes to life and blesses Jean
Jean at first is totally unaware of anything, but suddenly cries out that he finally understands Latin.
He sees the Virgin ascending to Heaven and beckoning him to follow.
In ecstasy, he falls back dead.
The other monks, awed by the sight, declare that they have been in the presence of a saint.
La Navarraise
Треклист:
Disc 2
7. Act 1. Prélude
8. Act 1. L'assaut a coûté cher, messieurs
9. Act 1. Capitaine, je vois que vous appartenez
10. Act 1. Je ne pensais qu'à toi
11. Act 1. Araquil - Mon père!
12. Act 1. Depuis deux ans je l'aime!
13. Act 1. Ah! Mariez donc son coeur avec mon coeur!
14. Act 1. Êtes-vous de la compagnie
15. Act 1. Morts! Les vieux compagnons
16. Act 1. Crénelons les maisons donnant sur la campagne
17. Act 1. Ô bien aimée
18. Act 1. Anita, la Navarraise?
19. Act 1. J'ai trois maisons dans Madrid
20. Act 1. Nocturne
21. Act 2. Alerte! Alerte!
22. Act 2. Mon argent, mes deux mille douros!
23. Act 2. Voici ma dot!
24. Act 2. Blessée, mourant, j'espère!
25. Act 2. Mourir! Mourir par moi!
26. Act 2. Mon fils! - Père!
27. Act 2. Merci, la bonne Vierge
Jules Massenet - La Navaraise
Opera in two acts
Libretto by Jules Claretie and Henri Cain, based on Claretie's short story La Cigarette
Anita (La Navarraise) - Genevieve Moizan, mezzo-soprano
Araquil, sergeant of the Biscay regiment - Alain Vanzo, tenor
Garrido - Jacques Mars, bass
Remigio, father of Araquil - Lucien Lovano, baritone
Ramon, captain of Biscay regiment - Joseph Peyron, tenor
Bustamente - Marcel Vigneron, baritone
Orchestre Lyrique et Choeurs de la RTF
Conductor: Jean-Claude Hartemann
Synopsis
Place: Spain
Time: Carlist War in 1874.
A lowly-born girl from Navarre, Anita, is in love with a soldier, Araquil.
Araquil's father, Remigio, finds Anita unacceptable and insists she pay a sum of two-thousand duros as a dowry, knowing she will not be able to raise the money.
Hearing this, Anita sings a song of lament while the commander Garrido sings of his hate towards the enemy Commander Zuccaraga.
Anita hears Garrido, and proposes that she kill Zuccaraga for a sum of two-thousand duros.
Garrido, though wary and suspicious, accepts the offer.
Garrido asks for her name, but she only dashes off saying "I am only the 'girl from Navarre.'"
Anita is spotted going to the enemy camp by the soldier, Ramon.
When Ramon hears that Araquil is looking for Anita, he tells Araquil that she is in the enemy camp.
Ramon misinterprets this, thinking that Anita is actually a spy, and Araquil thinks that she has gone to see a secret lover in the enemy camp.
Anita is successful in killing Zuccaraga and obtains her reward, but is told to swear not tell anyone.
Just then, Araquil is brought in, having been mortally wounded searching for Anita.
He confronts Anita who, under oath not to tell anyone, can only say "I did nothing wrong."
When he sees the money she has received, he accuses her of selling herself, to which she violently objects.
Then bells can be heard in the distance and Araquil asks his father why they are ringing.
Remigio tells him that Zuccaraga was assassinated.
Araquil looks at Anita again, only then realizing the truth; with the final words "the price of blood! how horrible!" he dies.
Anita collapses in horror she becomes crazy and falls into senseless, wild laughter.
Bonustracks
Disc 2
Le jongleur de Notre-Dame, Gustav Cloez (Friant, Bourdin, Dupré)
28. Act 1. Dame des ceiux... Liberté! Liberté! C'est Elle
29. Act 3. Personne... Allons courage!
30. Act 3. Il fait beau voir ces hommes d'armes
31. Act 3. Ae! Ae! Ae!... Sacrilège... Moins de furie!
32. Act 3. Arriève tous! La Vierge le protège!
33. Act 3. Non! Ne me raillez point. Punissez moi, mon Père
34. Act 3. Spectacle radieux! Je vois s'ouvrir les cieux!
La navarraise, Guy Dumazert (Vezzani)
35. Act 1. Ô bien-aimée

Лог создания рипа

CD1

Exact Audio Copy V1.0 beta 6 from 9. April 2015
EAC extraction logfile from 19. June 2015, 23:50
Massenet / Le jongleur de Notre-Dame, Dervaux CD1
Used drive : TSSTcorpCDDVDW SE-208AB Adapter: 1 ID: 2
Read mode : Secure
Utilize accurate stream : Yes
Defeat audio cache : Yes
Make use of C2 pointers : No
Read offset correction : 6
Overread into Lead-In and Lead-Out : No
Fill up missing offset samples with silence : Yes
Delete leading and trailing silent blocks : No
Null samples used in CRC calculations : Yes
Used interface : Native Win32 interface for Win NT & 2000
Used output format : Monkey's Audio Lossless Encoder
Selected bitrate : High Lossless Compression
Quality : High
Add ID3 tag : Yes
Command line compressor : C:\Program Files (x86)\Exact Audio Copy\MAC\MAC.exe
TOC of the extracted CD
Track | Start | Length | Start sector | End sector
---------------------------------------------------------
1 | 0:00.00 | 4:10.34 | 0 | 18783
2 | 4:10.34 | 1:08.17 | 18784 | 23900
3 | 5:18.51 | 1:07.15 | 23901 | 28940
4 | 6:25.66 | 1:08.62 | 28941 | 34102
5 | 7:34.53 | 2:51.08 | 34103 | 46935
6 | 10:25.61 | 3:52.01 | 46936 | 64336
7 | 14:17.62 | 2:26.70 | 64337 | 75356
8 | 16:44.57 | 5:42.71 | 75357 | 101077
9 | 22:27.53 | 2:53.37 | 101078 | 114089
10 | 25:21.15 | 2:55.65 | 114090 | 127279
11 | 28:17.05 | 2:33.47 | 127280 | 138801
12 | 30:50.52 | 2:40.30 | 138802 | 150831
13 | 33:31.07 | 1:06.39 | 150832 | 155820
14 | 34:37.46 | 2:05.41 | 155821 | 165236
15 | 36:43.12 | 0:38.69 | 165237 | 168155
16 | 37:22.06 | 0:46.24 | 168156 | 171629
17 | 38:08.30 | 3:06.07 | 171630 | 185586
18 | 41:14.37 | 0:56.35 | 185587 | 189821
19 | 42:10.72 | 0:40.11 | 189822 | 192832
20 | 42:51.08 | 1:08.62 | 192833 | 197994
21 | 43:59.70 | 2:04.36 | 197995 | 207330
22 | 46:04.31 | 2:08.54 | 207331 | 216984
23 | 48:13.10 | 1:38.05 | 216985 | 224339
24 | 49:51.15 | 0:40.31 | 224340 | 227370
25 | 50:31.46 | 7:05.30 | 227371 | 259275
26 | 57:37.01 | 1:49.19 | 259276 | 267469
27 | 59:26.20 | 6:50.36 | 267470 | 298255
28 | 66:16.56 | 2:08.11 | 298256 | 307866
29 | 68:24.67 | 0:38.73 | 307867 | 310789
30 | 69:03.65 | 1:19.34 | 310790 | 316748
31 | 70:23.24 | 0:44.72 | 316749 | 320120
Range status and errors
Selected range
Filename G:\RIPS\CD's\01 KLASSIEK\Donizetti - Roberto Devereux, Rudel\Massenet - Le jongleur de Notre-Dame, Dervaux CD1.wav
Peak level 97.7 %
Extraction speed 5.1 X
Range quality 100.0 %
Test CRC 89C04669
Copy CRC 89C04669
Copy OK
No errors occurred
AccurateRip summary
Track 1 accurately ripped (confidence 2) [AF29B4E4] (AR v2)
Track 2 accurately ripped (confidence 2) [53BDAAC5] (AR v2)
Track 3 accurately ripped (confidence 2) [2DBC35DD] (AR v2)
Track 4 accurately ripped (confidence 2) [2B756015] (AR v2)
Track 5 accurately ripped (confidence 2) [075048FD] (AR v2)
Track 6 accurately ripped (confidence 2) [1760913F] (AR v2)
Track 7 accurately ripped (confidence 2) [58FF57F8] (AR v2)
Track 8 accurately ripped (confidence 2) [5593B1DC] (AR v2)
Track 9 accurately ripped (confidence 2) [74C158D2] (AR v2)
Track 10 accurately ripped (confidence 2) [90E60DBD] (AR v2)
Track 11 accurately ripped (confidence 2) [4B40C868] (AR v2)
Track 12 accurately ripped (confidence 2) [A1C22710] (AR v2)
Track 13 accurately ripped (confidence 2) [7B3F2766] (AR v2)
Track 14 accurately ripped (confidence 2) [DC4C3CE1] (AR v2)
Track 15 accurately ripped (confidence 2) [7EE6130C] (AR v2)
Track 16 accurately ripped (confidence 2) [E20826C8] (AR v2)
Track 17 accurately ripped (confidence 2) [E6E3B722] (AR v2)
Track 18 accurately ripped (confidence 2) [022198E5] (AR v2)
Track 19 accurately ripped (confidence 2) [FE16D7B5] (AR v2)
Track 20 accurately ripped (confidence 2) [180E6D0D] (AR v2)
Track 21 accurately ripped (confidence 2) [6E123AB6] (AR v2)
Track 22 accurately ripped (confidence 2) [122B9767] (AR v2)
Track 23 accurately ripped (confidence 2) [55465648] (AR v2)
Track 24 accurately ripped (confidence 2) [16A862EB] (AR v2)
Track 25 accurately ripped (confidence 2) [80826C0C] (AR v2)
Track 26 accurately ripped (confidence 2) [AFB35FF7] (AR v2)
Track 27 accurately ripped (confidence 2) [0ACD30DD] (AR v1)
Track 28 accurately ripped (confidence 2) [A48C83FB] (AR v1)
Track 29 accurately ripped (confidence 2) [662C883B] (AR v1)
Track 30 accurately ripped (confidence 2) [E5A928AB] (AR v1)
Track 31 accurately ripped (confidence 2) [83827C02] (AR v2)
All tracks accurately ripped
End of status report
---- CUETools DB Plugin V2.1.6
[CTDB TOCID: vwI.nb0Sqt.lI04Y04_wSEUmjWM-] found
Submit result: vwI.nb0Sqt.lI04Y04_wSEUmjWM- has been confirmed
Track | CTDB Status
1 | (2/2) Accurately ripped
2 | (2/2) Accurately ripped
3 | (2/2) Accurately ripped
4 | (2/2) Accurately ripped
5 | (2/2) Accurately ripped
6 | (2/2) Accurately ripped
7 | (2/2) Accurately ripped
8 | (2/2) Accurately ripped
9 | (2/2) Accurately ripped
10 | (2/2) Accurately ripped
11 | (2/2) Accurately ripped
12 | (2/2) Accurately ripped
13 | (2/2) Accurately ripped
14 | (2/2) Accurately ripped
15 | (2/2) Accurately ripped
16 | (2/2) Accurately ripped
17 | (2/2) Accurately ripped
18 | (2/2) Accurately ripped
19 | (2/2) Accurately ripped
20 | (2/2) Accurately ripped
21 | (2/2) Accurately ripped
22 | (2/2) Accurately ripped
23 | (2/2) Accurately ripped
24 | (2/2) Accurately ripped
25 | (2/2) Accurately ripped
26 | (2/2) Accurately ripped
27 | (2/2) Accurately ripped
28 | (2/2) Accurately ripped
29 | (2/2) Accurately ripped
30 | (2/2) Accurately ripped
31 | (2/2) Accurately ripped
==== Log checksum 26E66BF7B3DAD0C1E732FAAA8F7E35F0641CA7EFEF3FFDE0D7249315DDABDA1C ====

CD2

Exact Audio Copy V1.0 beta 6 from 9. April 2015
EAC extraction logfile from 20. June 2015, 0:21
Massenet / Le jongleur de Notre-Dame, Dervaux_La Navarraise, Hartemann CD2
Used drive : TS8XDVDSTRANSCEND Adapter: 1 ID: 1
Read mode : Secure
Utilize accurate stream : Yes
Defeat audio cache : Yes
Make use of C2 pointers : No
Read offset correction : 6
Overread into Lead-In and Lead-Out : No
Fill up missing offset samples with silence : Yes
Delete leading and trailing silent blocks : No
Null samples used in CRC calculations : Yes
Used interface : Native Win32 interface for Win NT & 2000
Used output format : Monkey's Audio Lossless Encoder
Selected bitrate : High Lossless Compression
Quality : High
Add ID3 tag : Yes
Command line compressor : C:\Program Files (x86)\Exact Audio Copy\MAC\MAC.exe
TOC of the extracted CD
Track | Start | Length | Start sector | End sector
---------------------------------------------------------
1 | 0:00.00 | 2:51.04 | 0 | 12828
2 | 2:51.04 | 0:55.68 | 12829 | 17021
3 | 3:46.72 | 1:04.14 | 17022 | 21835
4 | 4:51.11 | 1:03.50 | 21836 | 26610
5 | 5:54.61 | 4:05.25 | 26611 | 45010
6 | 10:00.11 | 2:51.70 | 45011 | 57905
7 | 12:52.06 | 2:44.58 | 57906 | 70263
8 | 15:36.64 | 1:51.49 | 70264 | 78637
9 | 17:28.38 | 3:00.66 | 78638 | 92203
10 | 20:29.29 | 2:47.22 | 92204 | 104750
11 | 23:16.51 | 1:26.45 | 104751 | 111245
12 | 24:43.21 | 1:39.63 | 111246 | 118733
13 | 26:23.09 | 2:10.72 | 118734 | 128555
14 | 28:34.06 | 1:13.67 | 128556 | 134097
15 | 29:47.73 | 3:29.73 | 134098 | 149845
16 | 33:17.71 | 1:11.45 | 149846 | 155215
17 | 34:29.41 | 1:21.40 | 155216 | 161330
18 | 35:51.06 | 2:00.29 | 161331 | 170359
19 | 37:51.35 | 2:25.32 | 170360 | 181266
20 | 40:16.67 | 2:58.39 | 181267 | 194655
21 | 43:15.31 | 0:22.20 | 194656 | 196325
22 | 43:37.51 | 2:29.44 | 196326 | 207544
23 | 46:07.20 | 0:43.21 | 207545 | 210790
24 | 46:50.41 | 0:43.42 | 210791 | 214057
25 | 47:34.08 | 3:03.03 | 214058 | 227785
26 | 50:37.11 | 1:09.71 | 227786 | 233031
27 | 51:47.07 | 1:07.58 | 233032 | 238114
28 | 52:54.65 | 4:18.55 | 238115 | 257519
29 | 57:13.45 | 2:58.42 | 257520 | 270911
30 | 60:12.12 | 2:46.05 | 270912 | 283366
31 | 62:58.17 | 2:57.35 | 283367 | 296676
32 | 65:55.52 | 2:38.00 | 296677 | 308526
33 | 68:33.52 | 3:24.65 | 308527 | 323891
34 | 71:58.42 | 2:56.35 | 323892 | 337126
35 | 74:55.02 | 2:13.47 | 337127 | 347148
Range status and errors
Selected range
Filename G:\RIPS\CD's\01 KLASSIEK\Donizetti - Roberto Devereux, Rudel\Massenet - Le jongleur de Notre-Dame, Dervaux_La Navarraise, Hartemann CD2.wav
Peak level 89.1 %
Extraction speed 5.2 X
Range quality 100.0 %
Test CRC A7080994
Copy CRC A7080994
Copy OK
No errors occurred
AccurateRip summary
Track 1 accurately ripped (confidence 2) [054CEE51] (AR v2)
Track 2 accurately ripped (confidence 2) [FFED95B0] (AR v2)
Track 3 accurately ripped (confidence 2) [2F24AB87] (AR v2)
Track 4 accurately ripped (confidence 2) [7A008578] (AR v2)
Track 5 accurately ripped (confidence 2) [2A26976C] (AR v2)
Track 6 accurately ripped (confidence 2) [7B6EC7F9] (AR v2)
Track 7 accurately ripped (confidence 2) [601757FE] (AR v2)
Track 8 accurately ripped (confidence 2) [9EE3FE72] (AR v2)
Track 9 accurately ripped (confidence 2) [FE1B70A3] (AR v2)
Track 10 accurately ripped (confidence 2) [9D7BA118] (AR v2)
Track 11 accurately ripped (confidence 2) [F59EDAF7] (AR v2)
Track 12 accurately ripped (confidence 2) [1050EBED] (AR v2)
Track 13 accurately ripped (confidence 2) [13C89040] (AR v2)
Track 14 accurately ripped (confidence 2) [0744BB12] (AR v2)
Track 15 accurately ripped (confidence 2) [15B55193] (AR v2)
Track 16 accurately ripped (confidence 2) [0422EEAB] (AR v2)
Track 17 accurately ripped (confidence 2) [C3638A6E] (AR v2)
Track 18 accurately ripped (confidence 2) [16EE5A01] (AR v2)
Track 19 accurately ripped (confidence 2) [639D725D] (AR v2)
Track 20 accurately ripped (confidence 2) [5658ED99] (AR v2)
Track 21 accurately ripped (confidence 2) [33CB54EF] (AR v1)
Track 22 accurately ripped (confidence 2) [C52C8AD3] (AR v1)
Track 23 accurately ripped (confidence 2) [6C210C5D] (AR v1)
Track 24 accurately ripped (confidence 2) [72F50BBE] (AR v1)
Track 25 accurately ripped (confidence 2) [2AB1E6D3] (AR v1)
Track 26 accurately ripped (confidence 2) [EFD43369] (AR v1)
Track 27 accurately ripped (confidence 2) [3C430430] (AR v1)
Track 28 accurately ripped (confidence 2) [A68522DF] (AR v1)
Track 29 accurately ripped (confidence 2) [A00C13A3] (AR v1)
Track 30 accurately ripped (confidence 2) [13D76AFF] (AR v1)
Track 31 accurately ripped (confidence 2) [87781917] (AR v1)
Track 32 accurately ripped (confidence 2) [E4AEFA3F] (AR v1)
Track 33 accurately ripped (confidence 2) [4370E223] (AR v1)
Track 34 accurately ripped (confidence 2) [C2A44E04] (AR v1)
Track 35 accurately ripped (confidence 2) [20DE02C3] (AR v1)
All tracks accurately ripped
End of status report
---- CUETools DB Plugin V2.1.6
[CTDB TOCID: iKDaQhhmDZumhVwT.a2ZdRiq5S4-] found
Submit result: unrecognized or virtual drive
Track | CTDB Status
1 | (3/3) Accurately ripped
2 | (3/3) Accurately ripped
3 | (3/3) Accurately ripped
4 | (3/3) Accurately ripped
5 | (3/3) Accurately ripped
6 | (3/3) Accurately ripped
7 | (3/3) Accurately ripped
8 | (3/3) Accurately ripped
9 | (3/3) Accurately ripped
10 | (3/3) Accurately ripped
11 | (3/3) Accurately ripped
12 | (3/3) Accurately ripped
13 | (3/3) Accurately ripped
14 | (3/3) Accurately ripped
15 | (3/3) Accurately ripped
16 | (3/3) Accurately ripped
17 | (3/3) Accurately ripped
18 | (3/3) Accurately ripped
19 | (3/3) Accurately ripped
20 | (3/3) Accurately ripped
21 | (3/3) Accurately ripped
22 | (3/3) Accurately ripped
23 | (3/3) Accurately ripped
24 | (3/3) Accurately ripped
25 | (3/3) Accurately ripped
26 | (3/3) Accurately ripped
27 | (3/3) Accurately ripped
28 | (3/3) Accurately ripped
29 | (3/3) Accurately ripped
30 | (3/3) Accurately ripped
31 | (3/3) Accurately ripped
32 | (3/3) Accurately ripped
33 | (3/3) Accurately ripped
34 | (3/3) Accurately ripped
35 | (3/3) Accurately ripped
==== Log checksum 8A471D451FEC7C029DD0117D3B344BFD27D4AD7E777570239E5E3ED2D91AF2C1 ====

Содержание индексной карты (.CUE)

CD1

REM GENRE Opera
REM DATE 1973
REM DISCID D310AC1F
REM COMMENT "ExactAudioCopy v1.0b6"
PERFORMER "Massenet"
TITLE "Le jongleur de Notre-Dame, Dervaux CD1"
FILE "Massenet - Le jongleur de Notre-Dame, Dervaux CD1.ape" WAVE
TRACK 01 AUDIO
TITLE "Act 1. Scene 1. Dansez la Begerette"
PERFORMER "Massenet"
INDEX 01 00:00:00
TRACK 02 AUDIO
TITLE "Act 1. Scene 1. C'est un accord de vièle... Un jongleur"
PERFORMER "Massenet"
INDEX 01 04:10:34
TRACK 03 AUDIO
TITLE "Act 1. Scene 2. Place au roi des rongleurs"
PERFORMER "Massenet"
INDEX 01 05:18:51
TRACK 04 AUDIO
TITLE "Act 1. Scene 2. Gentil roi, choisis ta reine"
PERFORMER "Massenet"
INDEX 01 06:25:66
TRACK 05 AUDIO
TITLE "Act 1. Scene 2. Boniment: Voulez-vous des tours de jonglerie"
PERFORMER "Massenet"
INDEX 01 07:34:53
TRACK 06 AUDIO
TITLE "Act 1. Scene 2. Alleluia du vin: Le vin, c'est Dieu le Père"
PERFORMER "Massenet"
INDEX 01 10:25:61
TRACK 07 AUDIO
TITLE "Act 1. Scene 2. Hors d'ici, troupe infâme"
PERFORMER "Massenet"
INDEX 01 14:17:62
TRACK 08 AUDIO
TITLE "Act 1. Scene 2. Il pleure... Tu seras pardonné"
PERFORMER "Massenet"
INDEX 01 16:44:57
TRACK 09 AUDIO
TITLE "Act 1. Scene 2. Belle maîtresse en vérité"
PERFORMER "Massenet"
INDEX 01 22:27:53
TRACK 10 AUDIO
TITLE "Act 1. Scene 2. Pour la Viegre d'abord"
PERFORMER "Massenet"
INDEX 01 25:21:15
TRACK 11 AUDIO
TITLE "Act 1. Scene 2. Le Benedicite: A table! Et qu'un bon déjeuner"
PERFORMER "Massenet"
INDEX 01 28:17:05
TRACK 12 AUDIO
TITLE "Act 2. Prélude"
PERFORMER "Massenet"
INDEX 01 30:50:52
TRACK 13 AUDIO
TITLE "Act 2. Scene 1. Choeur des moines: Ave rosa speciosa"
PERFORMER "Massenet"
INDEX 01 33:31:07
TRACK 14 AUDIO
TITLE "Act 2. Scene 1. La cuisine est bonne au couvent"
PERFORMER "Massenet"
INDEX 01 34:37:46
TRACK 15 AUDIO
TITLE "Act 2. Scene 1. Mais dans ce coin solitaire"
PERFORMER "Massenet"
INDEX 01 36:43:12
TRACK 16 AUDIO
TITLE "Act 2. Scene 1. Ô Frère Jean, quelle paresse"
PERFORMER "Massenet"
INDEX 01 37:22:06
TRACK 17 AUDIO
TITLE "Act 2. Scene 1. Ah! Mes frères, je connais ma triste indignité"
PERFORMER "Massenet"
INDEX 01 38:08:30
TRACK 18 AUDIO
TITLE "Act 2. Scene 1. Jongleur, piteux métier"
PERFORMER "Massenet"
INDEX 01 41:14:37
TRACK 19 AUDIO
TITLE "Act 2. Scene 1. Vous oubliez, mon frère, la peinture"
PERFORMER "Massenet"
INDEX 01 42:10:72
TRACK 20 AUDIO
TITLE "Act 2. Scene 1. Non pas, à place d'honneur"
PERFORMER "Massenet"
INDEX 01 42:51:08
TRACK 21 AUDIO
TITLE "Act 2. Scene 1. Pour moi, je me figure"
PERFORMER "Massenet"
INDEX 01 43:59:70
TRACK 22 AUDIO
TITLE "Act 2. Scene 1. Quoi, mes frères!"
PERFORMER "Massenet"
INDEX 01 46:04:31
TRACK 23 AUDIO
TITLE "Act 2. Scene 2. Va, Frère Jean, ne les envie"
PERFORMER "Massenet"
INDEX 01 48:13:10
TRACK 24 AUDIO
TITLE "Act 2. Scene 2. La vierge entend fort bien"
PERFORMER "Massenet"
INDEX 01 49:51:15
TRACK 25 AUDIO
TITLE "Act 2. Scene 2. Légende de la sauge: Marie, avec l'enfant Jésus"
PERFORMER "Massenet"
INDEX 01 50:31:46
TRACK 26 AUDIO
TITLE "Act 2. Scene 3. Vierge, mère d'amour"
PERFORMER "Massenet"
INDEX 01 57:37:01
TRACK 27 AUDIO
TITLE "Act 3. Scene 1. Ave, Céleste"
PERFORMER "Massenet"
INDEX 01 59:26:20
TRACK 28 AUDIO
TITLE "Act 3. Scene 2. Mère adorable de Jésus"
PERFORMER "Massenet"
INDEX 01 66:16:56
TRACK 29 AUDIO
TITLE "Act 3. Scene 2. Boniment: Place, place, silence"
PERFORMER "Massenet"
INDEX 01 68:24:67
TRACK 30 AUDIO
TITLE "Act 3. Scene 2. Chanson de guerre: Il fait beau voir"
PERFORMER "Massenet"
INDEX 01 69:03:65
TRACK 31 AUDIO
TITLE "Act 3. Scene 2. Romance d'amour: Belle Doètte"
PERFORMER "Massenet"
INDEX 01 70:23:24

CD2

REM GENRE Opera
REM DATE 1963
REM DISCID 25121423
REM COMMENT "ExactAudioCopy v1.0b6"
PERFORMER "Massenet"
TITLE "Le jongleur de Notre-Dame, Dervaux_La Navarraise, Hartemann CD2"
FILE "Massenet - Le jongleur de Notre-Dame, Dervaux_La Navarraise, Hartemann CD2.ape" WAVE
TRACK 01 AUDIO
TITLE "Act 3. Scene 2. Le jeu de Robin et Marion: A l'orée du joli bocage"
PERFORMER "Massenet"
INDEX 01 00:00:00
TRACK 02 AUDIO
TITLE "Act 3. Scene 3. Danse du jongleur: Sacrilège"
PERFORMER "Massenet"
INDEX 01 02:51:04
TRACK 03 AUDIO
TITLE "Act 3. Scene 3. Le Miracle: Arriève tous!"
PERFORMER "Massenet"
INDEX 01 03:46:72
TRACK 04 AUDIO
TITLE "Act 3. Scene 3. Hosannah! Gloire à Jean!"
PERFORMER "Massenet"
INDEX 01 04:51:11
TRACK 05 AUDIO
TITLE "Act 3. Scene 3. C'est le Prieur!"
PERFORMER "Massenet"
INDEX 01 05:54:61
TRACK 06 AUDIO
TITLE "Act 3. Scene 3. Spectacle radieux"
PERFORMER "Massenet"
INDEX 01 10:00:11
TRACK 07 AUDIO
TITLE "Act 1. Prélude"
PERFORMER "Massenet"
INDEX 01 12:52:06
TRACK 08 AUDIO
TITLE "Act 1. L'assaut a coûté cher, messieurs"
PERFORMER "Massenet"
INDEX 01 15:36:64
TRACK 09 AUDIO
TITLE "Act 1. Capitaine, je vois que vous appartenez"
PERFORMER "Massenet"
INDEX 01 17:28:38
TRACK 10 AUDIO
TITLE "Act 1. Je ne pensais qu'à toi"
PERFORMER "Massenet"
INDEX 01 20:29:29
TRACK 11 AUDIO
TITLE "Act 1. Araquil - Mon père!"
PERFORMER "Massenet"
INDEX 01 23:16:51
TRACK 12 AUDIO
TITLE "Act 1. Depuis deux ans je l'aime!"
PERFORMER "Massenet"
INDEX 01 24:43:21
TRACK 13 AUDIO
TITLE "Act 1. Ah! Mariez donc son coeur avec mon coeur!"
PERFORMER "Massenet"
INDEX 01 26:23:09
TRACK 14 AUDIO
TITLE "Act 1. Êtes-vous de la compagnie"
PERFORMER "Massenet"
INDEX 01 28:34:06
TRACK 15 AUDIO
TITLE "Act 1. Morts! Les vieux compagnons"
PERFORMER "Massenet"
INDEX 01 29:47:73
TRACK 16 AUDIO
TITLE "Act 1. Crénelons les maisons donnant sur la campagne"
PERFORMER "Massenet"
INDEX 01 33:17:71
TRACK 17 AUDIO
TITLE "Act 1. Ô bien aimée"
PERFORMER "Massenet"
INDEX 01 34:29:41
TRACK 18 AUDIO
TITLE "Act 1. Anita, la Navarraise?"
PERFORMER "Massenet"
INDEX 01 35:51:06
TRACK 19 AUDIO
TITLE "Act 1. J'ai trois maisons dans Madrid"
PERFORMER "Massenet"
INDEX 01 37:51:35
TRACK 20 AUDIO
TITLE "Act 1. Nocturne"
PERFORMER "Massenet"
INDEX 01 40:16:67
TRACK 21 AUDIO
TITLE "Act 2. Alerte! Alerte!"
PERFORMER "Massenet"
INDEX 01 43:15:31
TRACK 22 AUDIO
TITLE "Act 2. Mon argent, mes deux mille douros!"
PERFORMER "Massenet"
INDEX 01 43:37:51
TRACK 23 AUDIO
TITLE "Act 2. Voici ma dot!"
PERFORMER "Massenet"
INDEX 01 46:07:20
TRACK 24 AUDIO
TITLE "Act 2. Blessée, mourant, j'espère!"
PERFORMER "Massenet"
INDEX 01 46:50:41
TRACK 25 AUDIO
TITLE "Act 2. Mourir! Mourir par moi!"
PERFORMER "Massenet"
INDEX 01 47:34:08
TRACK 26 AUDIO
TITLE "Act 2. Mon fils! - Père!"
PERFORMER "Massenet"
INDEX 01 50:37:11
TRACK 27 AUDIO
TITLE "Act 2. Merci, la bonne Vierge"
PERFORMER "Massenet"
INDEX 01 51:47:07
TRACK 28 AUDIO
TITLE "Bonus: Act 1. Dame des ceiux... Liberté! Liberté! C'est Elle"
PERFORMER "Massenet"
INDEX 01 52:54:65
TRACK 29 AUDIO
TITLE "Act 3. Personne... Allons courage!"
PERFORMER "Massenet"
INDEX 01 57:13:45
TRACK 30 AUDIO
TITLE "Act 3. Il fait beau voir ces hommes d'armes"
PERFORMER "Massenet"
INDEX 01 60:12:12
TRACK 31 AUDIO
TITLE "Act 3. Ae! Ae! Ae!... Sacrilège... Moins de furie!"
PERFORMER "Massenet"
INDEX 01 62:58:17
TRACK 32 AUDIO
TITLE "Act 3. Arriève tous! La Vierge le protège!"
PERFORMER "Massenet"
INDEX 01 65:55:52
TRACK 33 AUDIO
TITLE "Act 3. Non! Ne me raillez point. Punissez moi, mon Père"
PERFORMER "Massenet"
INDEX 01 68:33:52
TRACK 34 AUDIO
TITLE "Act 3. Spectacle radieux! Je vois s'ouvrir les cieux!"
PERFORMER "Massenet"
INDEX 01 71:58:42
TRACK 35 AUDIO
TITLE "Act 1. Ô bien-aimée"
PERFORMER "Massenet"
INDEX 01 74:55:02



Показать сообщения:    

Текущее время: 11-Дек 07:16

Часовой пояс: UTC + 3


Вы не можете начинать темы
Вы не можете отвечать на сообщения
Вы не можете редактировать свои сообщения
Вы не можете удалять свои сообщения
Вы не можете голосовать в опросах
Вы не можете прикреплять файлы к сообщениям
Вы не можете скачивать файлы