(Classical) Garden of Early Delights: Ortiz, van Eyck, Castello, Dowland, Schop, Bassano, Fontana, Marini - Pamela Thorby, Andrew Lawrence-King - 2008, FLAC (image+.cue) lossless


 

[Цитировать]

Garden of Early Delights: Ortiz, van Eyck, Castello, Dowland, Schop, Bassano, Fontana, Marini - Pamela Thorby, Andrew Lawrence-King
Жанр: Classical
Страна-производитель диска: UK
Год издания диска: 2008
Издатель (лейбл): Linn Records
Номер по каталогу: CKD 291
Дата записи: 2006
Аудиокодек: FLAC
Тип рипа: image+.cue
Битрейт аудио: lossless
Продолжительность: 67:01
Источник: собственный рип
Наличие сканов в содержимом раздачи: да
Треклист:
[1] Diego Ortiz (c.1510~1570): Recercada segunda de tenore
[2] Jacob van Eyck (1589/90~1657): Wat zal men op den Avond doen
[3] Jacob van Eyck: Derde, Doen Daphne d'over
[4] Jacob van Eyck: Boffons
[5] Dario Castello (fl. c.1620~1630): Sonata seconda a soprano solo
[6] John Dowland (1563~1626): Sorrow, sorrow stay
[7] Johann Schop (1590~1664): Lachrime Pavaen
[8] John Dowland: Weep you no more
[9] Giovanni Bassano (c.1558~1617) (after Lassus): Susanne ung jour
[10] Diego Ortiz: Recercada segunda de canto llano
[11] Giovanni Battista Fontana (died c.1630): Sonata sesta
[12] Biagio Marini (1594 – 1663): Passacalio
[13] Giovanni Battista Fontana: Sonata seconda
[14] Jacob van Eyck (after Caccini): Amarilli mia bella
[15] Diego Ortiz (after Sandrin): Recercada prima sobre doulce memoire
[16] Giovanni Bassano (after Clemens non Papa): Frais et gaillard
Исполнители:
Pamela Thorby recorder
Andrew Lawrence-King harp, psaltery

Лог создания рипа

Exact Audio Copy V1.0 beta 3 from 29. August 2011
EAC extraction logfile from 22. January 2015, 1:39
Pamela Thorby, Andrew Lawrence-King / Garden of Early Delights
Used drive : HL-DT-STDVDRAM GU70N Adapter: 0 ID: 0
Read mode : Secure
Utilize accurate stream : Yes
Defeat audio cache : Yes
Make use of C2 pointers : No
Read offset correction : 48
Overread into Lead-In and Lead-Out : No
Fill up missing offset samples with silence : Yes
Delete leading and trailing silent blocks : No
Null samples used in CRC calculations : Yes
Used interface : Native Win32 interface for Win NT & 2000
Used output format : User Defined Encoder
Selected bitrate : 128 kBit/s
Quality : High
Add ID3 tag : No
Command line compressor : C:\Program Files (x86)\Exact Audio Copy\Flac\flac.exe
Additional command line options : -V -8 -T "Date=%year%" -T "Genre=%genre%" %source%
TOC of the extracted CD
Track | Start | Length | Start sector | End sector
---------------------------------------------------------
1 | 0:00.00 | 2:13.09 | 0 | 9983
2 | 2:13.09 | 4:12.74 | 9984 | 28957
3 | 6:26.08 | 5:02.40 | 28958 | 51647
4 | 11:28.48 | 2:17.45 | 51648 | 61967
5 | 13:46.18 | 4:56.56 | 61968 | 84223
6 | 18:42.74 | 3:34.50 | 84224 | 100323
7 | 22:17.49 | 5:34.46 | 100324 | 125419
8 | 27:52.20 | 2:15.30 | 125420 | 135574
9 | 30:07.50 | 4:26.67 | 135575 | 155591
10 | 34:34.42 | 2:20.22 | 155592 | 166113
11 | 36:54.64 | 6:43.37 | 166114 | 196375
12 | 43:38.26 | 4:59.65 | 196376 | 218865
13 | 48:38.16 | 6:45.05 | 218866 | 249245
14 | 55:23.21 | 4:40.06 | 249246 | 270251
15 | 60:03.27 | 3:15.49 | 270252 | 284925
16 | 63:19.01 | 3:44.14 | 284926 | 301739
Range status and errors
Selected range
Filename C:\temp\Garden of Early Delights\Garden of Early Delights.wav
Peak level 97.9 %
Extraction speed 2.3 X
Range quality 99.9 %
Test CRC 48F70AD8
Copy CRC 48F70AD8
Copy OK
No errors occurred
AccurateRip summary
Track 1 accurately ripped (confidence 11) [8D391701] (AR v2)
Track 2 accurately ripped (confidence 11) [226AC6D4] (AR v2)
Track 3 accurately ripped (confidence 11) [0069B1B7] (AR v2)
Track 4 accurately ripped (confidence 11) [3DA9964E] (AR v2)
Track 5 accurately ripped (confidence 11) [CF8C69D6] (AR v2)
Track 6 accurately ripped (confidence 11) [2B3540F2] (AR v2)
Track 7 accurately ripped (confidence 11) [091BCA5D] (AR v2)
Track 8 accurately ripped (confidence 11) [BABA9656] (AR v2)
Track 9 accurately ripped (confidence 11) [E33A833D] (AR v2)
Track 10 accurately ripped (confidence 11) [24EAF828] (AR v2)
Track 11 accurately ripped (confidence 11) [3FF23E49] (AR v2)
Track 12 accurately ripped (confidence 11) [EB5BBB71] (AR v2)
Track 13 accurately ripped (confidence 11) [DADEB68D] (AR v2)
Track 14 accurately ripped (confidence 11) [6F719571] (AR v2)
Track 15 accurately ripped (confidence 11) [5AE264F7] (AR v2)
Track 16 accurately ripped (confidence 11) [053394D9] (AR v2)
All tracks accurately ripped
End of status report
==== Log checksum ED5B2CC44D31BA60F9A537128B02C50D0368E401E1C36045C2BF956FDBDC5FA3 ====



Показать сообщения:    

Текущее время: 08-Дек 03:16

Часовой пояс: UTC + 3


Вы не можете начинать темы
Вы не можете отвечать на сообщения
Вы не можете редактировать свои сообщения
Вы не можете удалять свои сообщения
Вы не можете голосовать в опросах
Вы не можете прикреплять файлы к сообщениям
Вы не можете скачивать файлы