[TR24][OF] Ophélie (Ophelie) Gaillard - Alvorada - 2015 (Classical)


Статистика раздачи [Обновить пиров]
Размер:  2.07 GB   |    Зарегистрирован:  8 месяцев 17 дней   |    Скачан:  3 раза

Полного источника не было: 3 дня

 
   
 
 
 

[Цитировать]

Ophélie Gaillard
Alvorada
-Год издания: 2015 | Жанр: Classical
Издатель: Aparté | Little Tribeca
Продолжительность: 01:49:06
Наличие сканов: Sleeve, Digital Booklet- -Контейнер: FLAC (*.flac)
Тип рипа: tracks
Разрядность: 24bit / 96kHz
Количество каналов: 2.0
-Треклист
Manuel de Falla (1876-1946)
Siete canciones populares españolas
01.IV. jota (3:26)
02. V. nana (2:41)
Enrique Granados (1867-1916)
Goyescas
03. Intermezzo (4:05)
Juan Carlos Cobián (1896-1953), Enrique Domingo Cadimaco (1900-1999)
04. Nieblas del riachuelo (3:55)
05. Alvorada (4:10)
Moisés Simons (1889-1945)
06. El Manisero (3:30)
Isolina Carillo (1907-1996)
07. Dos Gardenias (4:57)
José Dames (1907-1994), Horacio Basterra (1914-1957)
08. Nada (3:54)
Egberto Gismonti (1947-), Geraldo Carneiro (1952-)
09. água e vinho (3:48)
Astor Piazzolla (1921-1992)
10. Escualo (4:06)
11. Oblivion (3:58)
Grand tango
12. I. tempo di tango (3:26)
13. II. meno mosso (3:50)
14. III. piu mosso (3:26)
Juan Carlos Cobián, Enrique Domingo Cadimaco
15. Nostalgias (4:58)
Julián Plaza (1928-2003)
16. Payadora (4:14)
Félix Lipesker (1913-1970)
17. Romántica (3:36)
Alfredo Julio Gobbi (1912-1965)
18. A orlando goñi (3:58)
Toquinho (1946-), Vinicius de Moraes (1913-1980)
19. Tarde em itapuã (3:00)
Tom Jobim (1927-1994)
20. Wave (4:07)
Heitor Villa-Lobos (1887-1959)
21. O canto do cisne negro (2:54)
Heitor Villa-Lobos (1887-1959), Ruth Valadares Corrêa (1938)
22. Bachiana brasileira No. 5: I. cantilena (5:41)
23. El cant dels ocells (3:00)
Gaspar Cassadó (1897-1966)
Suite pour violoncelle seul
24. I. prelude-fantasia (5:35)
25. II. sardana-danza (4:30)
26. III. intermezzo e danza finale (6:10)
Baden Powell (1937-2000)
27. Berimbau (4:12)

О релизе


ALVORADA or the invitation to the voyage of cellist Ophélie Gaillard and her magical cello, a musical tour from Spain to Latin America (Brazil, Argentina, Cuba) featuring, in particular, the composers Villa-Lobos, Granados, Piazzolla and Jobim.
In an exceptional mixture of classical pieces and arrangements of the greatest themes of this intense music, the cello sings with the bandoneon, dances with the piano, guitar or percussion, and abandons itself in amorous intimacy with the voices.
ALVORADA immerses us in a sound universe where the feverish energy of the rhythms of this Hispanic and South-American music entrances us and from which a sensual nostalgia responds to a dizzying tango. All the senses are aroused when hearing these spellbinding songs and rhythms.
The colour of the sun, from dawn to dusk, is found in the clever alternation of these enchanting, universal pieces.
All the exceptional musicians (Sabine Devieilhe, Toquinho, Sandra Rumolino, Juanjo Mosalini, Rudi Flores, Emmanuel Rossfelder, Gabriel Sivak…) participating in the ALVORADA voyage hypnotize and fascinate us, allowing us to accompany them at every instant in the progression of this dream proposed by OPHÉLIE GAILLARD.
« Piezas universales, encantadoras y deliciosas, capaces de hipnotizar al oyente, tratadas con mimo por la violonchelista y un grupo de músicos excepcionales que nos brindan un fascinante viaje que HispaOpera recomienda sin dudarlo. » --Hispaopera.com
« Avec ce « feelgood album » festif et de grande qualité, Ophélie Gaillard, la musicienne multifacette, ajoute une corde de plus à son violoncelle. Poétique, dansante, chaleureuse, l’Alvorada d’Ophélie Gaillard et de ses amis est une promesse de bonheur. » --fnac.com
Ophélie Gaillard, cello
Sabine Devieilhe, soprano
Toquinho, chant
Sandra Rumolino, chant
Cyril Garac, violin
Juanjo Mosalini, bandoneon
Romain Lecuyer, upright bass
Luiz de Aquino, guitar
Rudi Flores, guitar
Emmanuel Rossfelder, guitar
Sandrine Chatron, harp
Nicolas Genest, trumpet
Fabien Cyprien, trombone
David Chupete, percussion
Florent Jodelet, percussion
Rubens Celso Lopes, percussion
Christian Paoli, percussion
Gerardo Di Giusto, piano
Gabriel Sivak, piano
Fernando Maguna, piano
Simao Alcoforado Barreira, cello
Ana Catarina Braga, cello
Anne-Charlotte Dupas, cello
Clémence Issartel, cello
Esther Lefebvre, cello
Hugo Paiva, cello
Laure Zaugg, cello
Gabriel Sivak, arrangements

ОтчётыДинамический диапазон

foobar2000 1.2.2 / Dynamic Range Meter 1.1.1
log date: 2015-06-20 22:13:02
--------------------------------------------------------------------------------
Analyzed: Ophélie Gaillard / Alvorada
--------------------------------------------------------------------------------
DR Peak RMS Duration Track
--------------------------------------------------------------------------------
DR10 -0.10 dB -14.22 dB 3:26 ?-Siete canciones populares españolas: IV. jota
DR11 -3.20 dB -19.23 dB 2:41 ?-Siete canciones populares españolas: V. nana
DR11 -0.10 dB -14.52 dB 4:05 ?-Goyescas: Intermezzo
DR11 -0.10 dB -14.38 dB 3:55 ?-Nieblas del riachuelo
DR11 -0.10 dB -13.48 dB 4:10 ?-Alvorada
DR9 -0.10 dB -11.53 dB 3:30 ?-El Manisero
DR10 -0.10 dB -13.10 dB 4:57 ?-Dos Gardenias
DR9 -0.10 dB -13.10 dB 3:54 ?-Nada
DR12 -0.34 dB -17.12 dB 3:48 ?-água e vinho
DR8 -0.10 dB -11.36 dB 4:06 ?-Escualo
DR10 -0.10 dB -13.83 dB 3:58 ?-Oblivion
DR10 -0.10 dB -13.45 dB 3:26 ?-Grand tango: tempo di tango
DR12 -0.10 dB -15.21 dB 3:50 ?-Grand tango: meno mosso
DR10 -0.10 dB -12.36 dB 3:26 ?-Grand tango: piu mosso
DR10 -0.10 dB -13.10 dB 4:58 ?-Nostalgias
DR10 -0.10 dB -12.48 dB 4:14 ?-Payadora
DR11 -0.10 dB -14.44 dB 3:36 ?-Romántica
DR13 -0.10 dB -15.14 dB 3:58 ?-A orlando goñi
DR11 -0.10 dB -13.05 dB 3:00 ?-Tarde em itapuã
DR12 -0.10 dB -14.87 dB 4:07 ?-Wave
DR11 -0.10 dB -15.42 dB 2:54 ?-O canto do cisne negro
DR9 -0.10 dB -13.81 dB 5:41 ?-Bachiana brasileira No. 5: I. cantilena
DR12 -2.98 dB -21.57 dB 3:00 ?-El cant dels ocells
DR12 -0.10 dB -16.39 dB 5:35 ?-Suite pour violoncelle seul: I. prelude-fantasia
DR11 -0.10 dB -14.89 dB 4:30 ?-Suite pour violoncelle seul: II. sardana-danza
DR11 -0.10 dB -15.31 dB 6:10 ?-Suite pour violoncelle seul: III. intermezzo e danza finale
DR12 -0.10 dB -15.19 dB 4:12 ?-Berimbau
--------------------------------------------------------------------------------
Number of tracks: 27
Official DR value: DR11
Samplerate: 96000 Hz
Channels: 2
Bits per sample: 24
Bitrate: 3067 kbps
Codec: FLAC
================================================================================

Скриншот спектра частот

Доп. информация

При скачивании, если необходимо, переименуйте папку, в которой будет находиться альбомБольшая просьба к скачавшим поддерживать раздачу! Помогайте другим, ведь вам тоже может понадобиться помощь!Не забываем говорить "Спасибо"!Комментарии приветствуются!
Ophélie Gaillard Hi-Res
[teatrix.ru].t21533.torrent 
Торрент: Зарегистрирован [ 2016-03-20 12:31 ] · 251ECD437FF0A19D86384477DFAD8615554CB7C3

Скачать .torrent

Скачать

13 KB

Статус: проверено
Скачан: 3 раз
Размер: 2.07 GB
terms.php



Быстрый ответ

Имя:

      
Для отправки сообщений необходимо включить JavaScript
Показать сообщения:    

Текущее время: 07-Дек 11:35

Часовой пояс: UTC + 3


Вы можете начинать темы
Вы можете отвечать на сообщения
Вы не можете редактировать свои сообщения
Вы не можете удалять свои сообщения
Вы не можете голосовать в опросах
Вы не можете прикреплять файлы к сообщениям
Вы можете скачивать файлы