[TR24][OF] P. Tchaikovsky/П.И. Чайковский - Symphony No. 5 & Romeo and Juliet Fantasy-Overture - San Francisco Symphony, Michael Tilson Thomas - 2015 (Classical)


Статистика раздачи [Обновить пиров]
Размер:  2.55 GB   |    Зарегистрирован:  8 месяцев 19 дней   |    Скачан:  0 раз

Полного источника не было: Никогда

 
   
 
 
 

[Цитировать]

P. Tchaikovsky
Symphony No. 5
Romeo and Juliet Fantasy-Overture
San Francisco Symphony · Michael Tilson Thomas
- Год издания: 2015 | Жанр: Classical
Издатель: SFS Media | Продолжительность: 01:10:52
Релизер: error404 | Наличие сканов: Sleeve- -
Piotr Ilyich Tchaikovsky (1840-1893)
Symphony No. 5 in E Minor, Op. 64
01.I. Andante - Allegro con anima (16:09)
02. II. Andante cantabile, con alcuna licenza (14:40)
03. III. Valse - Allegro moderato (6:20)
04. IV. Finale - Andante maestoso - Molto meno mosso (13:24)
Romeo and Juliet
05. Fantasy - Overture (20:19)-Контейнер: FLAC (*.flac) | Тип рипа: tracks
Разрядность: 24bit / 192kHz | Количество каналов: 2.0
-О релизе
Michael Tilson Thomas and the San Francisco Symphony unleash the passion and triumph of Tchaikovsky's Symphony No. 5 and Romeo and Juliet, Fantasy-Overture, in a live, 192/24 bit recording released as a Hybrid SACD.
Passion, love and triumph, as imagined by Tchaikovsky, are captured in sweeping glory by the award-winning, chart-topping team of Michael Tilson Thomas and the San Francisco Symphony. Tchaikovsky's heroic Fifth Symphony and the passionate Romeo and Juliet, Fantasy-Overture, which features one of the best-known love themes ever written - receive rapturous performances under a conductor whose Russian roots reveal the very esssence of the composer's emotional output.
Tilson Thomas says, "It has been possible in my life to not only perform [Tchaikovsky's Fifth] a lot, but to harken back to the sense of elegance that Piatigorsky, Heifetz and Rubinstein imparted to me about this kind of music." Captured live in the orchestra's home, Davies Symphony Hall, the audiophile release was recorded in 192/24 bit and is released as a Hybrid SACD.
Personnel: San Francisco Symphony, Michael Tilson Thomas (conductor)
Critical acclaim for Michael Tilson Thomas and the San Francisco Symphony:
"Minutes of pure, shimmering magic." - San Francisco Chronicle (on Masterpieces in Miniature)
"This is a recording that will blow your socks off." - Daily Telegraph (5 star review of West Side Story)

ОтчётыДинамический диапазон

foobar2000 1.2.2 / Dynamic Range Meter 1.1.1
log date: 2015-06-21 20:53:52
--------------------------------------------------------------------------------
Analyzed: San Francisco Symphony & Michael Tilson Thomas / Tchaikovsky: Symphony No. 5 & Romeo and Juliet, Fantasy-Overture
--------------------------------------------------------------------------------
DR Peak RMS Duration Track
--------------------------------------------------------------------------------
DR15 -0.37 dB -21.38 dB 16:09 ?-Symphony No. 5 in E Minor, Op. 64: I. Andante - Allegro con anima
DR15 -0.41 dB -21.81 dB 14:40 ?-Symphony No. 5 in E Minor, Op. 64: II. Andante cantabile, con alcuna licenza
DR15 -4.90 dB -26.06 dB 6:20 ?-Symphony No. 5 in E Minor, Op. 64: III. Valse - Allegro moderato
DR13 -0.20 dB -17.62 dB 13:24 ?-Symphony No. 5 in E Minor, Op. 64: IV. Finale - Andante maestoso - Molto meno mosso
DR14 -0.20 dB -20.37 dB 20:19 ?-Romeo and Juliet: Fantasy - Overture
--------------------------------------------------------------------------------
Number of tracks: 5
Official DR value: DR14
Samplerate: 192000 Hz
Channels: 2
Bits per sample: 24
Bitrate: 5138 kbps
Codec: FLAC
================================================================================

Скриншот спектра частот

Доп. информация

При скачивании, если необходимо, переименуйте папку, в которой будет находиться альбомБольшая просьба к скачавшим поддерживать раздачу! Помогайте другим, ведь вам тоже может понадобиться помощь!Не забываем говорить "Спасибо"!Комментарии приветствуются!
[teatrix.ru].t21535.torrent 
Торрент: Зарегистрирован [ 2016-03-20 12:31 ] · 4489306C75CBE57445C257078A8B3EC39C1B65CF

Скачать .torrent

Скачать

14 KB

Статус: проверено
Скачан: 0 раз
Размер: 2.55 GB
terms.php



Быстрый ответ

Имя:

      
Для отправки сообщений необходимо включить JavaScript
Показать сообщения:    

Текущее время: 08-Дек 21:12

Часовой пояс: UTC + 3


Вы можете начинать темы
Вы можете отвечать на сообщения
Вы не можете редактировать свои сообщения
Вы не можете удалять свои сообщения
Вы не можете голосовать в опросах
Вы не можете прикреплять файлы к сообщениям
Вы можете скачивать файлы