[TR24][OF] Perla Barocca: Early Italian Masterpieces - Rachel Podger, Marcin Świątkiewicz (Swiatkiewicz), Daniele Caminiti - 2014 (Classical)

DL-List and Torrent activity [Update пиров]
Size:  2.94 GB   |    Registered:  7 months 2 days   |    Completed:  0 times

Seeder not seen: Never



Perla Barocca
Early Italian Masterpieces
Rachel Podger
Marcin Świątkiewicz · Daniele Caminiti
-Год издания: 2014 | Жанр: Classical
Издатель: Channel Classics | Продолжительность: 01:09:53
Наличие сканов: Sleeve, Digital Booklet- -Rachel Podger - violin
Marcin Świątkiewicz - harpsichord & organ
Daniele Caminiti - theorbo
Recording Location: Schiedam Holland-Контейнер: FLAC (*.flac) | Тип рипа: tracks
Разрядность: 24bit / 192kHz | Количество каналов: 2.0
Giovanni Battista Fontana (d.1631)
01.Sonata Seconda (6:59)
Girolamo Frescobaldi (1583-1643)
02. Toccata Prima (4:04)
Marco Uccellini (1603-1680)
03. Sonata overo Toccata quinta a violino solo (6:14)
Dario Castello (1590-1658)
04. Sonata Seconda (5:33)
Biago Marini (1594-1663)
05. Sonata quatro per sonar con due corde (9:28)
Girolamo Frescobaldi (1583-1643)
06. Toccata per Spinettina e Violino (3:54)
Giovanni Antonio Pandolfi Mealli (1630-1670)
07. Sonata Sesta (Op 4, 1690) La Vinciolina (6:49)
Isabella Leonarda (1620-1704)
08. Sonata Duodecima (9:39)
Andrea Gabrieli (?1532/3-1585)
09. Ricercar del Primo Tono (3:22)
Giovanni Paolo Cima (1570-1622)
10. Sonata a due, Milano 1610 (5:06)
Antonio Bertali (1605-1669)
11. Chiacona (8:46)

О релизе

‘Rich Baroque colour – from the music, interpretation and the instruments themselves – surprises and delights throughout, as does the playing’s joyful vibrancy.’ (...) Podger’s pure tone and expressive bowing are well complemented by Marcin Swiatkiewicz’s bright, pungent copy of an Italian harpsichord from the early 1600s and Daniele Caminiti’s imaginative theorbo-playing.---Gramophone, Editors Choice
In the very early 17th century, extraordinary things were happening to music. Tectonic plates were on the move and established hierarchies were shifting away from vocal music towards instrumental music: away from the polyphonic complexities of a cappella ensemble or choral music towards the utterly different hierarchy of a top line and a bass line, both instrumental, with, crudely, a filling in the middle. It was a revolution: music was moving into the Baroque era. This beautifully assembled set of Baroque pearls - divinely played by Rachel Podger, the doyenne of Baroque violinists, along with her collaborators Marcin Swiatkiewicz on harpsichord and organ, and Daniele Caminiti on theorbo - catches that moment of change in wonderfully light, expressive, mercurial performances of music by composers such as Frescobaldi and Gabrieli, along with names unknown, including Isabella Leonarda, a nun who lived in a convent, churning out over 200 compositions. It's fascinating, immediately appealing stuff, terrific variety within the pieces and, audibly, all the seed elements of the Baroque Suite to come.---Herald Scotland- Michael Tumelty

ОтчётыДинамический диапазон

foobar2000 1.2.2 / Dynamic Range Meter 1.1.1
log date: 2015-06-22 13:53:46
Analyzed: Rachel Podger, Marcin Świątkiewicz, Daniele Caminiti / Perla Barocca: Early Italian Masterpieces
DR Peak RMS Duration Track
DR14 -7.34 dB -25.14 dB 6:59 ?-Sonata Seconda
DR12 -12.20 dB -28.10 dB 4:04 ?-Toccata Prima
DR14 -5.10 dB -23.96 dB 6:14 ?-Sonata overo Toccata quinta a violino solo
DR10 -4.78 dB -20.29 dB 5:33 ?-Sonata Seconda
DR11 -5.08 dB -22.36 dB 9:28 ?-Sonata quatro per sonar con due corde
DR14 -6.69 dB -24.81 dB 3:54 ?-Toccata per Spinettina e Violino
DR14 -7.93 dB -25.63 dB 6:49 ?-Sonata Sesta (Op 4, 1690) La Vinciolina
DR11 -9.03 dB -23.61 dB 9:39 ?-Sonata Duodecima
DR9 -9.95 dB -22.46 dB 3:22 ?-Ricercar del Primo Tono
DR11 -7.59 dB -21.78 dB 5:06 ?-Sonata a due, Milano 1610
DR16 -0.31 dB -22.17 dB 8:46 ?-Chiacona
Number of tracks: 11
Official DR value: DR12
Samplerate: 192000 Hz
Channels: 2
Bits per sample: 24
Bitrate: 6051 kbps
Codec: FLAC

Скриншот спектра частот

Доп. информация

При скачивании, если необходимо, переименуйте папку, в которой будет находиться альбомБольшая просьба к скачавшим поддерживать раздачу! Помогайте другим, ведь вам тоже может понадобиться помощь!Не забываем говорить "Спасибо"!Комментарии приветствуются!
Torrent: Registered [ 2016-03-20 12:31 ] · 5B12C9DCB74988E0C60BA2A118B080EAA463EB0A

Download .torrent


16 KB

Status: checked
Completed: 0 times
Size: 2.94 GB

Quick Reply


Heads necessary to send messages to enable JavaScript
Display posts:    

Current time is: 22-Oct 19:08

All times are UTC + 3

You can post new topics in this forum
You can reply to topics in this forum
You cannot edit your posts in this forum
You cannot delete your posts in this forum
You cannot vote in polls in this forum
You cannot attach files in this forum
You can download files in this forum