(Classiccal, chamber) Calefax Reed Quintet - 600 Years of Music - 2001, FLAC (tracks+.cue) lossless


 

[Цитировать]

Calefax Reed Quintet - 600 Years of Music
Жанр: Classiccal, chamber
Страна-производитель диска: Germany
Год издания диска: 2001
Издатель (лейбл): MDG
Номер по каталогу: 619 1043-2
Дата записи: 1985-2000
Аудиокодек: FLAC
Тип рипа: tracks+.cue
Битрейт аудио: lossless
Продолжительность: 00:00:57:05
Источник: скачано с
сайт-источник/ник/другое: Usenet
Наличие сканов в содержимом раздачи: да
Треклист:
01 Overture from The Nutcracker - Tschaikowsky P. - 02.57
02 La plus que lent. Valse - Debussy C. - 03.29
03 Seven Balkan Dances Con moto - Tajcevic M. - 01.42
04 Seven Balkan Dances Rustico - Tajcevic M. - 01.29
05 Seven Balkan Dances Vivo - Tajcevic M. - 00.46
06 Seven Balkan Dances Sostenuto e cantabile - Tajcevic M. - 02.49
07 Seven Balkan Dances Allegro ritmico - Tajcevic M. - 00.58
08 Seven Balkan Dances Allegretto - Tajcevic M. - 00.43
09 Seven Balkan Dances Allegro quasi pesante - Tajcevic M. - 01.02
10 March - Doest T. - 03.26
11 Lush life - Strayhorn B. - 03.46
12 Jump for joy - Ellington D. - 01.58
13 Estampie (14th cent.) - Koolmees H. - 04.12
14 Prelude and Ground - Byrd W. - 04.14
15 Browning - Byrd W. - 03.34
16 La Spagna - Anonymus - 02.29
17 Intemerata die mater - Ockeghem J. - 06.22
18 Mort, tu as navré - Ockeghem J. - 05.23
19 La Monina - Bendusi F. - 03.39
20 Su l'herba frescha - Bendusi F. - 00.57
Исполнители:
Calefax Reed Quintet - Oliver Boekhoorn (oboe), Raaf Hekkema (saxophone), Ivar Berix (clarinet), Jelte Althuis (bass clarinet), Alban Wesly (bassoon)

Лог создания рипа

Exact Audio Copy V1.0 beta 3 from 29. August 2011
EAC extraction logfile from 30. September 2012, 8:49
Various Artists Klassik / 600 Years Calefax
Used drive : HL-DT-STBD-RE BH10LS38 Adapter: 2 ID: 0
Read mode : Secure
Utilize accurate stream : Yes
Defeat audio cache : Yes
Make use of C2 pointers : Yes
Read offset correction : 667
Overread into Lead-In and Lead-Out : No
Fill up missing offset samples with silence : Yes
Delete leading and trailing silent blocks : No
Null samples used in CRC calculations : Yes
Used interface : Native Win32 interface for Win NT & 2000
Gap handling : Not detected, thus appended to previous track
Used output format : User Defined Encoder
Selected bitrate : 1024 kBit/s
Quality : High
Add ID3 tag : Yes
Command line compressor : F:\Program Files\Exact Audio Copy\FLAC\FLAC.EXE
Additional command line options : -6 -V -T "ARTIST=%artist%" -T "TITLE=%title%" -T "ALBUM=%albumtitle%" -T "DATE=%year%" -T "TRACKNUMBER=%tracknr%" -T "GENRE=%genre%" -T "COMMENT=%comment%" -T "BAND=%albuminterpret%" -T "ALBUMARTIST=%albuminterpret%" -T "COMPOSER=%composer%" %haslyrics%--tag-from-file=LYRICS="%lyricsfile%"%haslyrics% -T "DISCNUMBER=%cdnumber%" -T "TOTALDISCS=%totalcds%" -T "TOTALTRACKS=%numtracks%" %hascover%--picture="%coverfile%"%hascover% %source% -o %dest%
TOC of the extracted CD
Track | Start | Length | Start sector | End sector
---------------------------------------------------------
1 | 0:00.00 | 3:03.25 | 0 | 13749
2 | 3:03.25 | 3:34.05 | 13750 | 29804
3 | 6:37.30 | 1:41.42 | 29805 | 37421
4 | 8:18.72 | 1:28.20 | 37422 | 44041
5 | 9:47.17 | 0:45.43 | 44042 | 47459
6 | 10:32.60 | 2:49.30 | 47460 | 60164
7 | 13:22.15 | 0:57.42 | 60165 | 64481
8 | 14:19.57 | 0:42.65 | 64482 | 67696
9 | 15:02.47 | 1:10.15 | 67697 | 72961
10 | 16:12.62 | 3:30.50 | 72962 | 88761
11 | 19:43.37 | 3:49.70 | 88762 | 106006
12 | 23:33.32 | 2:02.48 | 106007 | 115204
13 | 25:36.05 | 4:20.55 | 115205 | 134759
14 | 29:56.60 | 4:18.25 | 134760 | 154134
15 | 34:15.10 | 3:39.72 | 154135 | 170631
16 | 37:55.07 | 2:35.00 | 170632 | 182256
17 | 40:30.07 | 6:27.70 | 182257 | 211351
18 | 46:58.02 | 5:30.68 | 211352 | 236169
19 | 52:28.70 | 3:39.27 | 236170 | 252621
20 | 56:08.22 | 0:57.48 | 252622 | 256944
Track 1
Filename F:\FLAC\Nieuwe map\01 Overture aus Der Nussknacker.wav
Peak level 92.1 %
Extraction speed 1.4 X
Track quality 100.0 %
Copy CRC 2F7A3F4B
Accurately ripped (confidence 2) [4EB1749D] (AR v2)
Copy OK
Track 2
Filename F:\FLAC\Nieuwe map\02 La plus que lente. Valse.wav
Peak level 96.7 %
Extraction speed 1.6 X
Track quality 100.0 %
Copy CRC B59DBCD8
Accurately ripped (confidence 2) [C7DAC7E6] (AR v2)
Copy OK
Track 3
Filename F:\FLAC\Nieuwe map\03 Seven Balkan Dances - Con Moto.wav
Peak level 39.8 %
Extraction speed 1.4 X
Track quality 100.0 %
Copy CRC 403BC86F
Accurately ripped (confidence 2) [AD03088F] (AR v2)
Copy OK
Track 4
Filename F:\FLAC\Nieuwe map\04 Seven Balkan Dances - Rustico.wav
Peak level 78.9 %
Extraction speed 1.0 X
Track quality 99.7 %
Copy CRC EC0DC4E4
Accurately ripped (confidence 2) [CDA1D76C] (AR v2)
Copy OK
Track 5
Filename F:\FLAC\Nieuwe map\05 Seven Balkan Dances - Vivo.wav
Peak level 84.4 %
Extraction speed 0.6 X
Track quality 99.5 %
Copy CRC 6C430A39
Accurately ripped (confidence 2) [146DA342] (AR v2)
Copy OK
Track 6
Filename F:\FLAC\Nieuwe map\06 Seven Balkan Dances - Sostenuto e cantabile.wav
Peak level 73.4 %
Extraction speed 1.8 X
Track quality 100.0 %
Copy CRC B2CE9C36
Accurately ripped (confidence 2) [86C5312E] (AR v2)
Copy OK
Track 7
Filename F:\FLAC\Nieuwe map\07 Seven Balkan Dances - Allegro ritmico.wav
Peak level 96.1 %
Extraction speed 1.3 X
Track quality 100.0 %
Copy CRC 3175DEC8
Accurately ripped (confidence 2) [B6078C40] (AR v2)
Copy OK
Track 8
Filename F:\FLAC\Nieuwe map\08 Seven Balkan Dances - Allegretto.wav
Peak level 41.6 %
Extraction speed 1.1 X
Track quality 100.0 %
Copy CRC 99873E98
Accurately ripped (confidence 2) [AA09554D] (AR v2)
Copy OK
Track 9
Filename F:\FLAC\Nieuwe map\09 Seven Balkan Dances - Allegro quasi pesante.wav
Peak level 90.2 %
Extraction speed 1.4 X
Track quality 100.0 %
Copy CRC 29BFCFF1
Accurately ripped (confidence 2) [98B61FE1] (AR v2)
Copy OK
Track 10
Filename F:\FLAC\Nieuwe map\10 März.wav
Peak level 100.0 %
Extraction speed 1.8 X
Track quality 99.8 %
Copy CRC 76BE94BD
Accurately ripped (confidence 2) [52610BB3] (AR v2)
Copy OK
Track 11
Filename F:\FLAC\Nieuwe map\11 Lush Life.wav
Peak level 80.6 %
Extraction speed 2.2 X
Track quality 100.0 %
Copy CRC 3675B700
Accurately ripped (confidence 2) [1878774E] (AR v2)
Copy OK
Track 12
Filename F:\FLAC\Nieuwe map\12 Ben Webster (1909-1973) , Jump for Joy.wav
Peak level 66.9 %
Extraction speed 2.0 X
Track quality 100.0 %
Copy CRC 66D26341
Accurately ripped (confidence 2) [5CDFB9F1] (AR v2)
Copy OK
Track 13
Filename F:\FLAC\Nieuwe map\13 Estampie (14th century ).wav
Peak level 98.9 %
Extraction speed 2.5 X
Track quality 100.0 %
Copy CRC 9A9EF245
Accurately ripped (confidence 2) [E6B2714E] (AR v2)
Copy OK
Track 14
Filename F:\FLAC\Nieuwe map\14 Prelude.wav
Peak level 74.0 %
Extraction speed 2.6 X
Track quality 100.0 %
Copy CRC 436C0B95
Accurately ripped (confidence 2) [CE2DC302] (AR v2)
Copy OK
Track 15
Filename F:\FLAC\Nieuwe map\15 Browning.wav
Peak level 76.0 %
Extraction speed 2.6 X
Track quality 100.0 %
Copy CRC BBFACE41
Accurately ripped (confidence 2) [9F6D06FF] (AR v2)
Copy OK
Track 16
Filename F:\FLAC\Nieuwe map\16 La Spagna.wav
Peak level 70.1 %
Extraction speed 2.5 X
Track quality 100.0 %
Copy CRC B2F0836A
Accurately ripped (confidence 2) [F74FD4C6] (AR v2)
Copy OK
Track 17
Filename F:\FLAC\Nieuwe map\17 Intemerata dei mater.wav
Peak level 56.9 %
Extraction speed 3.1 X
Track quality 100.0 %
Copy CRC E3E37373
Accurately ripped (confidence 2) [D8147FD7] (AR v2)
Copy OK
Track 18
Filename F:\FLAC\Nieuwe map\18 Mort, tu as navre.wav
Peak level 65.0 %
Extraction speed 3.2 X
Track quality 100.0 %
Copy CRC 215FE88D
Accurately ripped (confidence 2) [B018DB62] (AR v2)
Copy OK
Track 19
Filename F:\FLAC\Nieuwe map\19 la Monina.wav
Peak level 79.8 %
Extraction speed 3.0 X
Track quality 100.0 %
Copy CRC 6B22D24B
Accurately ripped (confidence 2) [FDFE016E] (AR v2)
Copy OK
Track 20
Filename F:\FLAC\Nieuwe map\20 Su l herba frescha.wav
Peak level 88.1 %
Extraction speed 2.0 X
Track quality 100.0 %
Copy CRC DBE805D9
Accurately ripped (confidence 2) [BDD65BBA] (AR v2)
Copy OK
All tracks accurately ripped
No errors occurred
End of status report
---- CUETools DB Plugin V2.1.3
[CTDB TOCID: uLDIKKuFww.exCKE9mykdk1ZGGM-] disk not present in database, Submit result: uLDIKKuFww.exCKE9mykdk1ZGGM- has been uploaded

Содержание индексной карты (.CUE)

REM ACCURATERIPID 0023ce88-021e9c9e-1b0d6114
REM COMMENT "CUETools generated dummy CUE sheet"
REM TOTALDISCS 1
REM DISCNUMBER 1
REM DATE 2000
REM GENRE "Classical"
PERFORMER ""
TITLE "600 Years Calefax"
FILE "01 Overture aus Der Nussknacker.flac" WAVE
TRACK 01 AUDIO
TITLE "Overture aus Der Nussknacker"
PERFORMER "Peter Tchaikovsky (1840-1893)"
INDEX 01 00:00:00
FILE "02 La plus que lente. Valse.flac" WAVE
TRACK 02 AUDIO
TITLE "La plus que lente. Valse"
PERFORMER "Claude Debussy (1862-1918)"
INDEX 01 00:00:00
FILE "03 Seven Balkan Dances - Con Moto.flac" WAVE
TRACK 03 AUDIO
TITLE "Seven Balkan Dances : Con Moto"
PERFORMER "Marko Tajcevic (1900-1984)"
INDEX 01 00:00:00
FILE "04 Seven Balkan Dances - Rustico.flac" WAVE
TRACK 04 AUDIO
TITLE "Seven Balkan Dances : Rustico"
PERFORMER "Marko Tajcevic (1900-1984)"
INDEX 01 00:00:00
FILE "05 Seven Balkan Dances - Vivo.flac" WAVE
TRACK 05 AUDIO
TITLE "Seven Balkan Dances : Vivo"
PERFORMER "Marko Tajcevic (1900-1984)"
INDEX 01 00:00:00
FILE "06 Seven Balkan Dances - Sostenuto e cantabile.flac" WAVE
TRACK 06 AUDIO
TITLE "Seven Balkan Dances : Sostenuto e cantabile"
PERFORMER "Marko Tajcevic (1900-1984)"
INDEX 01 00:00:00
FILE "07 Seven Balkan Dances - Allegro ritmico.flac" WAVE
TRACK 07 AUDIO
TITLE "Seven Balkan Dances : Allegro ritmico"
PERFORMER "Marko Tajcevic (1900-1984)"
INDEX 01 00:00:00
FILE "08 Seven Balkan Dances - Allegretto.flac" WAVE
TRACK 08 AUDIO
TITLE "Seven Balkan Dances : Allegretto"
PERFORMER "Marko Tajcevic (1900-1984)"
INDEX 01 00:00:00
FILE "09 Seven Balkan Dances - Allegro quasi pesante.flac" WAVE
TRACK 09 AUDIO
TITLE "Seven Balkan Dances : Allegro quasi pesante"
PERFORMER "Marko Tajcevic (1900-1984)"
INDEX 01 00:00:00
FILE "10 März.flac" WAVE
TRACK 10 AUDIO
TITLE "März"
PERFORMER "Ton ter Doest (*1964- )"
INDEX 01 00:00:00
FILE "11 Lush Life.flac" WAVE
TRACK 11 AUDIO
TITLE "Lush Life"
PERFORMER "Billy Strayhorn (1915-1967)"
INDEX 01 00:00:00
FILE "12 Ben Webster (1909-1973) , Jump for Joy.flac" WAVE
TRACK 12 AUDIO
TITLE "Ben Webster (1909-1973) / Jump for Joy"
PERFORMER "Duke Ellington (1899-1974)"
INDEX 01 00:00:00
FILE "13 Estampie (14th century ).flac" WAVE
TRACK 13 AUDIO
TITLE "Estampie (14th century )"
PERFORMER "Hans Koolmees (*1959 - )"
INDEX 01 00:00:00
FILE "14 Prelude.flac" WAVE
TRACK 14 AUDIO
TITLE "Prelude"
PERFORMER "William Byrd (1543-1623)"
INDEX 01 00:00:00
FILE "15 Browning.flac" WAVE
TRACK 15 AUDIO
TITLE "Browning"
PERFORMER "William Byrd (1543-1623)"
INDEX 01 00:00:00
FILE "16 La Spagna.flac" WAVE
TRACK 16 AUDIO
TITLE "La Spagna"
PERFORMER "Anonymus"
INDEX 01 00:00:00
FILE "17 Intemerata dei mater.flac" WAVE
TRACK 17 AUDIO
TITLE "Intemerata dei mater"
PERFORMER "Johannes Ockeghem ( ca. 1420 - 1495)"
INDEX 01 00:00:00
FILE "18 Mort, tu as navre.flac" WAVE
TRACK 18 AUDIO
TITLE "Mort, tu as navre"
PERFORMER "Johannes Ockeghem ( ca. 1420 - 1495)"
INDEX 01 00:00:00
FILE "19 la Monina.flac" WAVE
TRACK 19 AUDIO
TITLE "la Monina"
PERFORMER "Francesco Bendusi ( ca. 1553)"
INDEX 01 00:00:00
FILE "20 Su l herba frescha.flac" WAVE
TRACK 20 AUDIO
TITLE "Su l herba frescha"
PERFORMER "Francesco Bendusi ( ca. 1553)"
INDEX 01 00:00:00

Лог проверки качества

Скриншот спектра частот

Доп. информация:



Показать сообщения:    

Текущее время: 09-Дек 16:34

Часовой пояс: UTC + 3


Вы не можете начинать темы
Вы не можете отвечать на сообщения
Вы не можете редактировать свои сообщения
Вы не можете удалять свои сообщения
Вы не можете голосовать в опросах
Вы не можете прикреплять файлы к сообщениям
Вы не можете скачивать файлы