(Classical / Symphony / Piano Concerto / Vocal / Choral) Johannes Brahms - Symphonien • Klavierkonzert Nr. 1 • Lieder • Ein deutsches Requiem (Emanuel Ax, Kathleen Battle, Hakan Hagegard, James Levine) - 2011 [4 CD], FLAC (tracks+.cue) lossless


 

[Цитировать]

Johannes Brahms | Йоханнес Брамс
(1833–1897)



Die Symphonien | Klavierkonzert Nr. 1 | Lieder | Ein deutsches Requiem
Симфонии | Фортепианный концерт № 1 | Песни | Немецкий Реквием


Emanuel Ax piano
Kathleen Battle sopranoHåkan Hagegård baritone
Chicago Symphony Chorus (Margaret Hills chorus master)
Chicago Symphony Orchestra
James Levine piano & conductor


Жанр: Classical / Symphony / Piano Concerto / Vocal / Choral
Даты записи: 1975, 1976, 1983
Формат записи: ADD/DDD, Stereo
Год издания диска: 2011
Издатель (лейбл): RCA (Sony)
Номер по каталогу: 88697-68604-2 (8-86976-86042-4)
Аудиокодек: FLAC
Тип рипа: tracks+.cue
Битрейт аудио: lossless
Продолжительность: 5:02:32
Наличие сканов в содержимом раздачи: нет
Источник: What.CD
Релизёр: jme23

-Tracklist / ТреклистCD 1: Symphonien Nrn. 1, 4
Symphonie Nr. 1 c-moll, Op. 68 - 42:51
I. Un poco sostenuto. — Allegro. — Meno Allegro - 12:26
  • II. Andante sostenuto - 8:51
  • III. Un poco Allegretto e grazioso - 4:35
  • IV. Adagio. — Allegro non troppo, ma con brio - 16:59
    Recorded: Medinah Temple, Chicago, 23 July 1975
    Symphonie Nr. 4 e-moll, Op. 98 - 37:58
    I. Allegro non troppo - 11:34
  • II. Andante moderato - 10:33
  • III. Allegro giocoso. — Poco meno Presto. — Tempo I - 6:10
  • IV. Allegro energico e passionato. — Più Allegro - 9:41
    Recorded: Medinah Temple, Chicago, 12 & 13 July 1976
    CD 2: Symphonien Nrn. 2, 3
    Symphonie Nr. 3 F-dur, Op. 90 - 38:56
    I. Allegro con brio. — Un poco sostenuto. — Tempo I - 13:36
  • II. Andante - 9:30
  • III. Poco Allegretto - 7:02
  • IV. Allegro - 8:47
    Recorded: Medinah Temple, Chicago, 13 July 1976
    Symphonie Nr. 2 D-dur, Op. 73 - 38:53
    I. Allegro non troppo - 15:23
  • II. Adagio non troppo. — L'istesso tempo, ma grazioso - 8:42
  • III. Allegretto grazioso (quasi Andantino). — Presto ma non assai - 5:30
  • IV. Allegro con spirito - 9:18
    Recorded: Medinah Temple, Chicago, 12 July 1976
    CD 3: Klavierkonzert Nr. 1 • Lieder
    Klavierkonzert Nr. 1 d-moll, Op. 15 - 50:15
    I. Maestoso - 23:12
  • II. Adagio - 14:31
  • III. Rondo: Allegro non troppo - 12:32
    Emanuel Ax (piano)
    Recorded: Orchestra Hall, Chicago, 5 July 1983

    Lieder - 22:37
    «Juchhe!», Op. 6 Nr. 4 - 1:57
  • «Wiegenlied», Op. 49 Nr. 4 - 1:42
  • «Das Madchen spricht», Op. 107 Nr. 3 - 1:15
  • «Heimweh II» («O wüßt ich doch den Weg zurück»), Op. 63 Nr. 8 - 3:33
  • «Junge Liebe I» («Meine Liebe ist grün wie der Fliederbusch»), Op. 63 Nr. 5 - 1:22
  • «Von ewiger Liebe», Op. 43 Nr. 1 - 4:23
  • «Wir wandelten, wir zwei zusammen», Op. 96 Nr. 2 - 4:09
  • «Nachtwandler», Op. 86 Nr. 3 - 4:15
    Kathleen Battle (soprano) [4, 6, 8, 10]
    Håkan Hagegård (baritone) [5, 7, 9, 11]
    James Levine (piano)
    Recorded: RCA Studio A, New York, 21 November [4, 6, 8, 10] & 11 October [5, 7, 9, 11] 1983

    CD 4: Ein deutsches Requiem
    Ein deutsches Requiem, Op. 45 - 1:11:02
    I. «Selig sind, die da Leid tragen, denn sie sollen getröstet werden» - 9:37
  • II. «Denn alles Fleisch, es ist wie Gras» - 16:37
  • III. «Herr, lehre doch mich, daß ein Ende mit mir haben muß» - 10:21
  • IV. «Wie lieblich sind deine Wohnungen, Herr Zebaoth!» - 5:26
  • V. «Ihr habt nun Traurigkeit» - 6:59
  • VI. «Denn wir haben hie keine bleibende Statt» - 11:22
  • VII. «Selig sind die Toten, die in dem Herrn sterben» - 10:41
    Kathleen Battle (soprano) [5], Håkan Hagegård (baritone) [3, 6]
    Chicago Symphony Chorus (Margaret Hills, chorus master)
    Recorded: Orchestra Hall, Chicago, 5 & 6 July, 1983
    -

    EAC logs / Отчёты EACCD 1: Symphonien Nrn. 1, 4

    Exact Audio Copy V1.0 beta 3 from 29. August 2011
    EAC extraction logfile from 29. February 2012, 8:40
    James Levine & Chicago Symphony Orchestra / James Levine conducts Brahms - Symphonies Nos. 1-4, etc.
    Used drive : HL-DT-STDVDRWBD CA10N Adapter: 1 ID: 0
    Read mode : Secure
    Utilize accurate stream : Yes
    Defeat audio cache : Yes
    Make use of C2 pointers : No
    Read offset correction : 667
    Overread into Lead-In and Lead-Out : No
    Fill up missing offset samples with silence : Yes
    Delete leading and trailing silent blocks : No
    Null samples used in CRC calculations : Yes
    Used interface : Native Win32 interface for Win NT & 2000
    Gap handling : Appended to previous track
    Used output format : User Defined Encoder
    Selected bitrate : 1024 kBit/s
    Quality : High
    Add ID3 tag : No
    Command line compressor : C:\Program Files (x86)\Exact Audio Copy\Flac\flac.exe
    Additional command line options : -8 -V -T "ARTIST=%artist%" -T "TITLE=%title%" -T "ALBUM=%albumtitle%" -T "DATE=%year%" -T "TRACKNUMBER=%tracknr%" -T "GENRE=%genre%" -T "PERFORMER=%albuminterpret%" -T "COMPOSER=%composer%" %haslyrics%--tag-from-file=LYRICS="%lyricsfile%"%haslyrics% -T "ALBUMARTIST=%albumartist%" -T "DISCNUMBER=%cdnumber%" -T "TOTALDISCS=%totalcds%" -T "TOTALTRACKS=%numtracks%" -T "COMMENT=%comment%" %source% -o %dest%
    TOC of the extracted CD
    Track | Start | Length | Start sector | End sector
    ---------------------------------------------------------
    1 | 0:00.00 | 12:25.57 | 0 | 55931
    2 | 12:25.57 | 8:51.05 | 55932 | 95761
    3 | 21:16.62 | 4:34.65 | 95762 | 116376
    4 | 25:51.52 | 16:58.70 | 116377 | 192796
    5 | 42:50.47 | 11:33.38 | 192797 | 244809
    6 | 54:24.10 | 10:33.35 | 244810 | 292319
    7 | 64:57.45 | 6:10.00 | 292320 | 320069
    8 | 71:07.45 | 9:41.30 | 320070 | 363674
    Track 1
    Filename C:\EACRips\Brahms - James Levine - Chicago Symphony Orchestra - Symphonies 1-4 etc. (2011) [FLAC]\CD1\01 - Symphony No. 1 in C minor, op.68 - I. Un poco sostenuto - Allegro.wav
    Pre-gap length 0:00:02.00
    Peak level 87.9 %
    Extraction speed 3.4 X
    Track quality 100.0 %
    Test CRC 29675E2D
    Copy CRC 29675E2D
    Accurately ripped (confidence 2) [F7ACC03D] (AR v1)
    Copy OK
    Track 2
    Filename C:\EACRips\Brahms - James Levine - Chicago Symphony Orchestra - Symphonies 1-4 etc. (2011) [FLAC]\CD1\02 - Symphony No. 1 in C minor, op.68 - II. Andante sostenuto.wav
    Peak level 80.7 %
    Extraction speed 4.0 X
    Track quality 100.0 %
    Test CRC D0D4B3FF
    Copy CRC D0D4B3FF
    Accurately ripped (confidence 2) [17271C91] (AR v1)
    Copy OK
    Track 3
    Filename C:\EACRips\Brahms - James Levine - Chicago Symphony Orchestra - Symphonies 1-4 etc. (2011) [FLAC]\CD1\03 - Symphony No. 1 in C minor, op.68 - III. Un poco allegretto e grazioso.wav
    Peak level 85.6 %
    Extraction speed 3.5 X
    Track quality 99.9 %
    Test CRC 038EF5A5
    Copy CRC 038EF5A5
    Accurately ripped (confidence 2) [D5061BC6] (AR v1)
    Copy OK
    Track 4
    Filename C:\EACRips\Brahms - James Levine - Chicago Symphony Orchestra - Symphonies 1-4 etc. (2011) [FLAC]\CD1\04 - Symphony No. 1 in C minor, op.68 - IV. Adagio - Piu Andante - Allegro non troppo, ma con brio.wav
    Peak level 87.9 %
    Extraction speed 4.9 X
    Track quality 100.0 %
    Test CRC 32DC36B0
    Copy CRC 32DC36B0
    Accurately ripped (confidence 2) [46ECACFF] (AR v1)
    Copy OK
    Track 5
    Filename C:\EACRips\Brahms - James Levine - Chicago Symphony Orchestra - Symphonies 1-4 etc. (2011) [FLAC]\CD1\05 - Symphony No. 4 in E minor, op.98 - I. Allegro non troppo.wav
    Pre-gap length 0:00:06.66
    Peak level 88.0 %
    Extraction speed 5.1 X
    Track quality 99.9 %
    Test CRC 4BA83067
    Copy CRC 4BA83067
    Accurately ripped (confidence 2) [8138ADB5] (AR v1)
    Copy OK
    Track 6
    Filename C:\EACRips\Brahms - James Levine - Chicago Symphony Orchestra - Symphonies 1-4 etc. (2011) [FLAC]\CD1\06 - Symphony No. 4 in E minor, op.98 - II. Andante moderato.wav
    Peak level 87.9 %
    Extraction speed 5.4 X
    Track quality 99.9 %
    Test CRC C25200E2
    Copy CRC C25200E2
    Accurately ripped (confidence 2) [2D3ABBD9] (AR v1)
    Copy OK
    Track 7
    Filename C:\EACRips\Brahms - James Levine - Chicago Symphony Orchestra - Symphonies 1-4 etc. (2011) [FLAC]\CD1\07 - Symphony No. 4 in E minor, op.98 - III. Allegro giocoso.wav
    Peak level 87.9 %
    Extraction speed 5.8 X
    Track quality 100.0 %
    Test CRC FF1D37D1
    Copy CRC FF1D37D1
    Accurately ripped (confidence 2) [05A22451] (AR v1)
    Copy OK
    Track 8
    Filename C:\EACRips\Brahms - James Levine - Chicago Symphony Orchestra - Symphonies 1-4 etc. (2011) [FLAC]\CD1\08 - Symphony No. 4 in E minor, op.98 - IV. Allegro energico e passionato.wav
    Peak level 87.9 %
    Extraction speed 6.3 X
    Track quality 100.0 %
    Test CRC 27F50F64
    Copy CRC 27F50F64
    Accurately ripped (confidence 2) [23A340CC] (AR v1)
    Copy OK
    All tracks accurately ripped
    No errors occurred
    End of status report
    ---- CUETools DB Plugin V2.1.3
    [CTDB TOCID: WfBaKDL9aU5Z4K.7Ecoxr4uNM3I-] found, Submit result: WfBaKDL9aU5Z4K.7Ecoxr4uNM3I- has been confirmed
    [4fb76a2c] (1/1) Accurately ripped
    ==== Log checksum 0ABCE82F15FDAC7FADE6E410B9ED7905D8AD1779A3B26E0836D395205948CCF5 ====

    CD 2: Symphonien Nrn. 2, 3

    Exact Audio Copy V1.0 beta 3 from 29. August 2011
    EAC extraction logfile from 29. February 2012, 9:42
    James Levine & Chicago Symphony Orchestra / James Levine conducts Brahms - Symphonies Nos. 1-4, etc. - CD2
    Used drive : HL-DT-STDVDRWBD CA10N Adapter: 1 ID: 0
    Read mode : Secure
    Utilize accurate stream : Yes
    Defeat audio cache : Yes
    Make use of C2 pointers : No
    Read offset correction : 667
    Overread into Lead-In and Lead-Out : No
    Fill up missing offset samples with silence : Yes
    Delete leading and trailing silent blocks : No
    Null samples used in CRC calculations : Yes
    Used interface : Native Win32 interface for Win NT & 2000
    Gap handling : Appended to previous track
    Used output format : User Defined Encoder
    Selected bitrate : 1024 kBit/s
    Quality : High
    Add ID3 tag : No
    Command line compressor : C:\Program Files (x86)\Exact Audio Copy\Flac\flac.exe
    Additional command line options : -8 -V -T "ARTIST=%artist%" -T "TITLE=%title%" -T "ALBUM=%albumtitle%" -T "DATE=%year%" -T "TRACKNUMBER=%tracknr%" -T "GENRE=%genre%" -T "PERFORMER=%albuminterpret%" -T "COMPOSER=%composer%" %haslyrics%--tag-from-file=LYRICS="%lyricsfile%"%haslyrics% -T "ALBUMARTIST=%albumartist%" -T "DISCNUMBER=%cdnumber%" -T "TOTALDISCS=%totalcds%" -T "TOTALTRACKS=%numtracks%" -T "COMMENT=%comment%" %source% -o %dest%
    TOC of the extracted CD
    Track | Start | Length | Start sector | End sector
    ---------------------------------------------------------
    1 | 0:00.00 | 13:35.70 | 0 | 61194
    2 | 13:35.70 | 9:30.02 | 61195 | 103946
    3 | 23:05.72 | 7:02.13 | 103947 | 135609
    4 | 30:08.10 | 8:47.37 | 135610 | 175171
    5 | 38:55.47 | 15:22.73 | 175172 | 244394
    6 | 54:18.45 | 8:41.70 | 244395 | 283539
    7 | 63:00.40 | 5:30.35 | 283540 | 308324
    8 | 68:31.00 | 9:18.00 | 308325 | 350174
    Track 1
    Filename C:\EACRips\Brahms - James Levine - Chicago Symphony Orchestra - Symphonies 1-4 etc. (2011) [FLAC]\CD2\01 - Symphony No. 3 in F major, op. 90 - I. Allegro con brio.wav
    Pre-gap length 0:00:02.00
    Peak level 89.5 %
    Extraction speed 3.5 X
    Track quality 100.0 %
    Test CRC 6C7BD679
    Copy CRC 6C7BD679
    Accurately ripped (confidence 3) [F58EE983] (AR v2)
    Copy OK
    Track 2
    Filename C:\EACRips\Brahms - James Levine - Chicago Symphony Orchestra - Symphonies 1-4 etc. (2011) [FLAC]\CD2\02 - Symphony No. 3 in F major, op. 90 - II. Andante.wav
    Peak level 88.2 %
    Extraction speed 3.8 X
    Track quality 99.9 %
    Test CRC 35A9638D
    Copy CRC 35A9638D
    Accurately ripped (confidence 3) [405F38AC] (AR v2)
    Copy OK
    Track 3
    Filename C:\EACRips\Brahms - James Levine - Chicago Symphony Orchestra - Symphonies 1-4 etc. (2011) [FLAC]\CD2\03 - Symphony No. 3 in F major, op. 90 - III. Poco allegretto.wav
    Peak level 49.8 %
    Extraction speed 4.4 X
    Track quality 100.0 %
    Test CRC 55C2BA88
    Copy CRC 55C2BA88
    Accurately ripped (confidence 3) [14763EC6] (AR v2)
    Copy OK
    Track 4
    Filename C:\EACRips\Brahms - James Levine - Chicago Symphony Orchestra - Symphonies 1-4 etc. (2011) [FLAC]\CD2\04 - Symphony No. 3 in F major, op. 90 - IV. Allegro.wav
    Peak level 91.8 %
    Extraction speed 4.8 X
    Track quality 100.0 %
    Test CRC B6805D33
    Copy CRC B6805D33
    Accurately ripped (confidence 3) [2DCF63EF] (AR v2)
    Copy OK
    Track 5
    Filename C:\EACRips\Brahms - James Levine - Chicago Symphony Orchestra - Symphonies 1-4 etc. (2011) [FLAC]\CD2\05 - Symphony No. 2 in D major, op. 73 - I. Allegro non troppo.wav
    Pre-gap length 0:00:08.66
    Peak level 88.0 %
    Extraction speed 5.0 X
    Track quality 99.9 %
    Test CRC 4D10988D
    Copy CRC 4D10988D
    Accurately ripped (confidence 3) [D2B10C1C] (AR v2)
    Copy OK
    Track 6
    Filename C:\EACRips\Brahms - James Levine - Chicago Symphony Orchestra - Symphonies 1-4 etc. (2011) [FLAC]\CD2\06 - Symphony No. 2 in D major, op. 73 - II. Adagio non troppo.wav
    Peak level 87.9 %
    Extraction speed 5.8 X
    Track quality 100.0 %
    Test CRC FA87640F
    Copy CRC FA87640F
    Accurately ripped (confidence 3) [D01B1F31] (AR v2)
    Copy OK
    Track 7
    Filename C:\EACRips\Brahms - James Levine - Chicago Symphony Orchestra - Symphonies 1-4 etc. (2011) [FLAC]\CD2\07 - Symphony No. 2 in D major, op. 73 - III. Allegretto grazioso (Quasi Andantino) - Presto ma non assai.wav
    Peak level 79.2 %
    Extraction speed 5.8 X
    Track quality 100.0 %
    Test CRC 4A1453E4
    Copy CRC 4A1453E4
    Accurately ripped (confidence 3) [EE539398] (AR v2)
    Copy OK
    Track 8
    Filename C:\EACRips\Brahms - James Levine - Chicago Symphony Orchestra - Symphonies 1-4 etc. (2011) [FLAC]\CD2\08 - Symphony No. 2 in D major, op. 73 - IV. Allegro con spirito.wav
    Peak level 88.0 %
    Extraction speed 6.3 X
    Track quality 100.0 %
    Test CRC 1375E2C4
    Copy CRC 1375E2C4
    Accurately ripped (confidence 3) [398B3374] (AR v2)
    Copy OK
    All tracks accurately ripped
    No errors occurred
    End of status report
    ---- CUETools DB Plugin V2.1.3
    [CTDB TOCID: xTjfRvOkVAqQGxXp57F5SEDimcU-] found, Submit result: xTjfRvOkVAqQGxXp57F5SEDimcU- has been confirmed
    [39501500] (1/1) Accurately ripped
    ==== Log checksum 5E232203A14550F521F0C28E38D427A7191F2FCFD24F7D2CEDB7DE1396B59C94 ====

    CD 3: Klavierkonzert Nr. 1 • Lieder

    Exact Audio Copy V1.0 beta 3 from 29. August 2011
    EAC extraction logfile from 29. February 2012, 10:51
    James Levine & Chicago Symphony Orchestra / James Levine conducts Brahms - Symphonies Nos. 1-4, etc. - CD3
    Used drive : HL-DT-STDVDRWBD CA10N Adapter: 1 ID: 0
    Read mode : Secure
    Utilize accurate stream : Yes
    Defeat audio cache : Yes
    Make use of C2 pointers : No
    Read offset correction : 667
    Overread into Lead-In and Lead-Out : No
    Fill up missing offset samples with silence : Yes
    Delete leading and trailing silent blocks : No
    Null samples used in CRC calculations : Yes
    Used interface : Native Win32 interface for Win NT & 2000
    Gap handling : Appended to previous track
    Used output format : User Defined Encoder
    Selected bitrate : 1024 kBit/s
    Quality : High
    Add ID3 tag : No
    Command line compressor : C:\Program Files (x86)\Exact Audio Copy\Flac\flac.exe
    Additional command line options : -8 -V -T "ARTIST=%artist%" -T "TITLE=%title%" -T "ALBUM=%albumtitle%" -T "DATE=%year%" -T "TRACKNUMBER=%tracknr%" -T "GENRE=%genre%" -T "PERFORMER=%albuminterpret%" -T "COMPOSER=%composer%" %haslyrics%--tag-from-file=LYRICS="%lyricsfile%"%haslyrics% -T "ALBUMARTIST=%albumartist%" -T "DISCNUMBER=%cdnumber%" -T "TOTALDISCS=%totalcds%" -T "TOTALTRACKS=%numtracks%" -T "COMMENT=%comment%" %source% -o %dest%
    TOC of the extracted CD
    Track | Start | Length | Start sector | End sector
    ---------------------------------------------------------
    1 | 0:00.00 | 23:12.30 | 0 | 104429
    2 | 23:12.30 | 14:31.07 | 104430 | 169761
    3 | 37:43.37 | 12:31.50 | 169762 | 226136
    4 | 50:15.12 | 1:56.38 | 226137 | 234874
    5 | 52:11.50 | 1:42.22 | 234875 | 242546
    6 | 53:53.72 | 1:15.35 | 242547 | 248206
    7 | 55:09.32 | 3:33.25 | 248207 | 264206
    8 | 58:42.57 | 1:22.03 | 264207 | 270359
    9 | 60:04.60 | 4:23.02 | 270360 | 290086
    10 | 64:27.62 | 4:08.58 | 290087 | 308744
    11 | 68:36.45 | 4:15.30 | 308745 | 327899
    Track 1
    Filename C:\EACRips\Brahms - James Levine - Chicago Symphony Orchestra - Symphonies 1-4 etc. (2011) [FLAC]\CD3\01 - James Levine & Chicago Symphony Orchestra; Emanuel Ax - Piano Concerto No. 1 in D minor, op. 15 - I. Maestoso.wav
    Pre-gap length 0:00:02.00
    Peak level 91.4 %
    Extraction speed 3.7 X
    Track quality 99.9 %
    Test CRC EB1477FF
    Copy CRC EB1477FF
    Accurately ripped (confidence 3) [7304D5DE] (AR v2)
    Copy OK
    Track 2
    Filename C:\EACRips\Brahms - James Levine - Chicago Symphony Orchestra - Symphonies 1-4 etc. (2011) [FLAC]\CD3\02 - James Levine & Chicago Symphony Orchestra; Emanuel Ax - Piano Concerto No. 1 in D minor, op. 15 - II. Adagio.wav
    Peak level 35.5 %
    Extraction speed 4.8 X
    Track quality 100.0 %
    Test CRC 6E4A2AF2
    Copy CRC 6E4A2AF2
    Accurately ripped (confidence 3) [9C01A2A6] (AR v2)
    Copy OK
    Track 3
    Filename C:\EACRips\Brahms - James Levine - Chicago Symphony Orchestra - Symphonies 1-4 etc. (2011) [FLAC]\CD3\03 - James Levine & Chicago Symphony Orchestra; Emanuel Ax - Piano Concerto No. 1 in D minor, op. 15 - III. Rondo. Allegro non troppo.wav
    Peak level 74.7 %
    Extraction speed 5.3 X
    Track quality 100.0 %
    Test CRC 2B61774A
    Copy CRC 2B61774A
    Accurately ripped (confidence 3) [B58C4D04] (AR v2)
    Copy OK
    Track 4
    Filename C:\EACRips\Brahms - James Levine - Chicago Symphony Orchestra - Symphonies 1-4 etc. (2011) [FLAC]\CD3\04 - James Levine & Chicago Symphony Orchestra; Kathleen Battle - Juchhe, op. 6 no. 4.wav
    Pre-gap length 0:00:08.65
    Peak level 86.9 %
    Extraction speed 3.4 X
    Track quality 99.9 %
    Test CRC 21E9E5E8
    Copy CRC 21E9E5E8
    Accurately ripped (confidence 3) [CA70C5AE] (AR v2)
    Copy OK
    Track 5
    Filename C:\EACRips\Brahms - James Levine - Chicago Symphony Orchestra - Symphonies 1-4 etc. (2011) [FLAC]\CD3\05 - James Levine & Chicago Symphony Orchestra; Hakan Hagegard - Wiegenlied, op. 49 no. 4.wav
    Peak level 10.2 %
    Extraction speed 4.5 X
    Track quality 100.0 %
    Test CRC DDE78C66
    Copy CRC DDE78C66
    Accurately ripped (confidence 3) [B8A56D1F] (AR v2)
    Copy OK
    Track 6
    Filename C:\EACRips\Brahms - James Levine - Chicago Symphony Orchestra - Symphonies 1-4 etc. (2011) [FLAC]\CD3\06 - James Levine & Chicago Symphony Orchestra; Kathleen Battle - Das Madchen spricht, op. 107 no. 3.wav
    Peak level 46.9 %
    Extraction speed 4.1 X
    Track quality 100.0 %
    Test CRC BD66DCF6
    Copy CRC BD66DCF6
    Accurately ripped (confidence 3) [37077206] (AR v2)
    Copy OK
    Track 7
    Filename C:\EACRips\Brahms - James Levine - Chicago Symphony Orchestra - Symphonies 1-4 etc. (2011) [FLAC]\CD3\07 - James Levine & Chicago Symphony Orchestra; Hakan Hagegard - Heimweh II- ''O Wusst ich doch den Weg zuruck'', op. 63 no. 8.wav
    Peak level 45.0 %
    Extraction speed 5.1 X
    Track quality 100.0 %
    Test CRC 46C3E922
    Copy CRC 46C3E922
    Accurately ripped (confidence 3) [4AD5AF83] (AR v2)
    Copy OK
    Track 8
    Filename C:\EACRips\Brahms - James Levine - Chicago Symphony Orchestra - Symphonies 1-4 etc. (2011) [FLAC]\CD3\08 - James Levine & Chicago Symphony Orchestra; Kathleen Battle - Junge Lieder I- ''Meine Liebe ist grun'', op. 63 no. 5.wav
    Peak level 79.0 %
    Extraction speed 4.3 X
    Track quality 100.0 %
    Test CRC 26124EA3
    Copy CRC 26124EA3
    Accurately ripped (confidence 3) [FEA9A0D5] (AR v2)
    Copy OK
    Track 9
    Filename C:\EACRips\Brahms - James Levine - Chicago Symphony Orchestra - Symphonies 1-4 etc. (2011) [FLAC]\CD3\09 - James Levine & Chicago Symphony Orchestra; Hakan Hagegard - Von ewiger Liebe, op. 43 no. 1.wav
    Peak level 91.7 %
    Extraction speed 5.6 X
    Track quality 100.0 %
    Test CRC A08939BC
    Copy CRC A08939BC
    Accurately ripped (confidence 3) [D536D963] (AR v2)
    Copy OK
    Track 10
    Filename C:\EACRips\Brahms - James Levine - Chicago Symphony Orchestra - Symphonies 1-4 etc. (2011) [FLAC]\CD3\10 - James Levine & Chicago Symphony Orchestra; Kathleen Battle - Wir wandelten, op. 96 no. 2.wav
    Peak level 33.3 %
    Extraction speed 5.7 X
    Track quality 100.0 %
    Test CRC 1C8DC9C9
    Copy CRC 1C8DC9C9
    Accurately ripped (confidence 3) [C77FD34F] (AR v2)
    Copy OK
    Track 11
    Filename C:\EACRips\Brahms - James Levine - Chicago Symphony Orchestra - Symphonies 1-4 etc. (2011) [FLAC]\CD3\11 - James Levine & Chicago Symphony Orchestra; Hakan Hagegard - Nachtwandler, op. 86 no. 3.wav
    Peak level 33.4 %
    Extraction speed 2.5 X
    Track quality 100.0 %
    Test CRC E3920CDA
    Copy CRC E3920CDA
    Accurately ripped (confidence 3) [CB8CE2E7] (AR v2)
    Copy OK
    All tracks accurately ripped
    No errors occurred
    End of status report
    ---- CUETools DB Plugin V2.1.3
    [CTDB TOCID: WWTJDYF03CpSRL6.99iXWpz9Evw-] found, Submit result: WWTJDYF03CpSRL6.99iXWpz9Evw- has been confirmed
    [c3912293] (1/1) Accurately ripped
    ==== Log checksum 6F0E2724D1A9F408727CC8201E134664025A4FBAC5BE8A08B9812ED4329C22E7 ====

    CD 4: Ein deutsches Requiem

    Exact Audio Copy V1.0 beta 3 from 29. August 2011
    EAC extraction logfile from 29. February 2012, 12:58
    James Levine & Chicago Symphony Orchestra; Chicago Symphony Chorus / James Levine conducts Brahms - Symphonies Nos. 1-4, etc. - CD4
    Used drive : HL-DT-STDVDRWBD CA10N Adapter: 1 ID: 0
    Read mode : Secure
    Utilize accurate stream : Yes
    Defeat audio cache : Yes
    Make use of C2 pointers : No
    Read offset correction : 667
    Overread into Lead-In and Lead-Out : No
    Fill up missing offset samples with silence : Yes
    Delete leading and trailing silent blocks : No
    Null samples used in CRC calculations : Yes
    Used interface : Native Win32 interface for Win NT & 2000
    Gap handling : Appended to previous track
    Used output format : User Defined Encoder
    Selected bitrate : 1024 kBit/s
    Quality : High
    Add ID3 tag : No
    Command line compressor : C:\Program Files (x86)\Exact Audio Copy\Flac\flac.exe
    Additional command line options : -8 -V -T "ARTIST=%artist%" -T "TITLE=%title%" -T "ALBUM=%albumtitle%" -T "DATE=%year%" -T "TRACKNUMBER=%tracknr%" -T "GENRE=%genre%" -T "PERFORMER=%albuminterpret%" -T "COMPOSER=%composer%" %haslyrics%--tag-from-file=LYRICS="%lyricsfile%"%haslyrics% -T "ALBUMARTIST=%albumartist%" -T "DISCNUMBER=%cdnumber%" -T "TOTALDISCS=%totalcds%" -T "TOTALTRACKS=%numtracks%" -T "COMMENT=%comment%" %source% -o %dest%
    TOC of the extracted CD
    Track | Start | Length | Start sector | End sector
    ---------------------------------------------------------
    1 | 0:00.00 | 9:36.63 | 0 | 43262
    2 | 9:36.63 | 16:36.57 | 43263 | 118019
    3 | 26:13.45 | 10:20.48 | 118020 | 164567
    4 | 36:34.18 | 5:26.02 | 164568 | 189019
    5 | 42:00.20 | 6:58.68 | 189020 | 220437
    6 | 48:59.13 | 11:21.62 | 220438 | 271574
    7 | 60:21.00 | 10:40.50 | 271575 | 319624
    Track 1
    Filename C:\EACRips\Brahms - James Levine - Chicago Symphony Orchestra - Symphonies 1-4 etc. (2011) [FLAC]\CD4\01 - James Levine & Chicago Symphony Orchestra; Chicago Symphony Chorus - Ein deutsches Requiem - I. Selig sind, die da Leid tragen.wav
    Pre-gap length 0:00:02.00
    Peak level 97.5 %
    Extraction speed 3.2 X
    Track quality 100.0 %
    Test CRC ED93A6D6
    Copy CRC ED93A6D6
    Accurately ripped (confidence 3) [7A5AA1C4] (AR v2)
    Copy OK
    Track 2
    Filename C:\EACRips\Brahms - James Levine - Chicago Symphony Orchestra - Symphonies 1-4 etc. (2011) [FLAC]\CD4\02 - James Levine & Chicago Symphony Orchestra; Chicago Symphony Chorus - Ein deutsches Requiem - II. Denn alles Fleisch es ist wie Gras.wav
    Peak level 98.1 %
    Extraction speed 4.0 X
    Track quality 100.0 %
    Test CRC 19DF66FA
    Copy CRC 19DF66FA
    Accurately ripped (confidence 3) [89D785B5] (AR v2)
    Copy OK
    Track 3
    Filename C:\EACRips\Brahms - James Levine - Chicago Symphony Orchestra - Symphonies 1-4 etc. (2011) [FLAC]\CD4\03 - James Levine & Chicago Symphony Orchestra; Chicago Symphony Chorus; Haken Hagegard - Ein deutsches Requiem - III. Herr, lehre doch mich.
    Peak level 98.8 %
    Extraction speed 4.4 X
    Track quality 100.0 %
    Test CRC C756E332
    Copy CRC C756E332
    Accurately ripped (confidence 3) [B41AB279] (AR v2)
    Copy OK
    Track 4
    Filename C:\EACRips\Brahms - James Levine - Chicago Symphony Orchestra - Symphonies 1-4 etc. (2011) [FLAC]\CD4\04 - James Levine & Chicago Symphony Orchestra; Chicago Symphony Chorus - Ein deutsches Requiem - IV. Wie lieblich sind deine Wohnungen.wav
    Peak level 98.8 %
    Extraction speed 4.2 X
    Track quality 99.9 %
    Test CRC F47F507B
    Copy CRC F47F507B
    Accurately ripped (confidence 3) [13D758FB] (AR v2)
    Copy OK
    Track 5
    Filename C:\EACRips\Brahms - James Levine - Chicago Symphony Orchestra - Symphonies 1-4 etc. (2011) [FLAC]\CD4\05 - James Levine & Chicago Symphony Orchestra; Chicago Symphony Chorus; Kathleen Battle - Ein deutsches Requiem - V. Ihr habt nun Traurigkei
    Peak level 75.7 %
    Extraction speed 5.1 X
    Track quality 100.0 %
    Test CRC 3DDD6D46
    Copy CRC 3DDD6D46
    Accurately ripped (confidence 3) [7124FB7D] (AR v2)
    Copy OK
    Track 6
    Filename C:\EACRips\Brahms - James Levine - Chicago Symphony Orchestra - Symphonies 1-4 etc. (2011) [FLAC]\CD4\06 - James Levine & Chicago Symphony Orchestra; Chicago Symphony Chorus; Haken Hagegard - Ein deutsches Requiem - VI. Denn wir haben hie lein
    Peak level 98.8 %
    Extraction speed 5.8 X
    Track quality 100.0 %
    Test CRC D6A24E35
    Copy CRC D6A24E35
    Accurately ripped (confidence 3) [AC03D0AF] (AR v2)
    Copy OK
    Track 7
    Filename C:\EACRips\Brahms - James Levine - Chicago Symphony Orchestra - Symphonies 1-4 etc. (2011) [FLAC]\CD4\07 - James Levine & Chicago Symphony Orchestra; Chicago Symphony Chorus - Ein deutsches Requiem - VII. Selig sind die Toten.wav
    Peak level 94.6 %
    Extraction speed 6.2 X
    Track quality 100.0 %
    Test CRC 79E3D36E
    Copy CRC 79E3D36E
    Accurately ripped (confidence 3) [DDFA2CDA] (AR v2)
    Copy OK
    All tracks accurately ripped
    No errors occurred
    End of status report
    ---- CUETools DB Plugin V2.1.3
    [CTDB TOCID: 1Muy17SPR_ZSvqERY_jYrk8.f38-] found, Submit result: 1Muy17SPR_ZSvqERY_jYrk8.f38- has been confirmed
    [f3f5db37] (1/2) No match
    [e42dff1f] (1/2) Accurately ripped
    ==== Log checksum A23544040F9F59A36923265AEAF2CA1EF4CD0198EC64B7102C4BBD26AE49D92D ====

    auCDtect Task Manager logs / Отчёты auCDtect Task ManagerCD 1: Symphonien Nrn. 1, 4

    -----------------------
    DON'T MODIFY THIS FILE
    -----------------------
    PERFORMER: auCDtect Task Manager, ver. 1.5.1RC3 build 1.5.1.4
    Copyright (c) 2008-2010 y-soft. All rights reserved
    ANALYZER: auCDtect: CD records authenticity detector, version 0.8.2
    Copyright (c) 2004 Oleg Berngardt. All rights reserved.
    Copyright (c) 2004 Alexander Djourik. All rights reserved.
    FILE: 08 - Symphonie Nr. 4 - IV. Allegro energico e passionato. - Piu Allegro.flac
    Size: 45923991 Hash: FCF129BFAD7E6CC94835703E970B1057 Accuracy: -m0
    Conclusion: CDDA 100%
    Signature: D9CE14D698B6D58D4024B2A1F2904B338D4B014B
    FILE: 07 - Symphonie Nr. 4 - III. Allegro giocoso. - Poco meno Presto. - Tempo I.flac
    Size: 30700812 Hash: BE20E0AF89E2143032153C27F6F4663F Accuracy: -m0
    Conclusion: CDDA 100%
    Signature: DFE1B60C5BD4B1B95E06287C966E12BA9FF8723E
    FILE: 06 - Symphonie Nr. 4 - II. Andante moderato.flac
    Size: 43946685 Hash: C8577FC4033C2A7D338CBC24271C69A4 Accuracy: -m0
    Conclusion: CDDA 100%
    Signature: 35979CE254C99E21C9CFD995F41416D46DD674BB
    FILE: 05 - Symphonie Nr. 4 - I. Allegro non troppo.flac
    Size: 56961429 Hash: E52474BF23EF21D689D122875A9CA4A1 Accuracy: -m0
    Conclusion: CDDA 100%
    Signature: BEF98769FE727B8AE4564344D4749125DD6D0683
    FILE: 04 - Symphonie Nr. 1 - IV. Adagio. - Allegro non troppo, ma con brio.flac
    Size: 81851004 Hash: A3C49E366A169B81CF0DFE7B75669906 Accuracy: -m0
    Conclusion: CDDA 100%
    Signature: BD57A69F2C2EF515811A2CF0249AF7B6D2C13DA4
    FILE: 03 - Symphonie Nr. 1 - III. Un poco Allegretto e grazioso.flac
    Size: 19991241 Hash: 8D21928FD89851D51EAC298810BB7287 Accuracy: -m0
    Conclusion: CDDA 100%
    Signature: 2FAD5A6358990993A76A29F3F93D99AE860BBDEE
    FILE: 02 - Symphonie Nr. 1 - II. Andante sostenuto.flac
    Size: 35427209 Hash: BF0B86BC7C7D00C5017137AE20F4E504 Accuracy: -m0
    Conclusion: CDDA 100%
    Signature: 6771C84058EC5BCC3DA8DC95DBD4966C0AD096A8
    FILE: 01 - Symphonie Nr. 1 - I. Un poco sostenuto. - Allegro. - Meno Allegro.flac
    Size: 60133229 Hash: 1AE0C0E0E76F41F5A7441C213FC11B53 Accuracy: -m0
    Conclusion: CDDA 100%
    Signature: 118FB1E7CFDB772D6D9DED78BEF80F149CB1B0AF

    CD 2: Symphonien Nrn. 2, 3

    -----------------------
    DON'T MODIFY THIS FILE
    -----------------------
    PERFORMER: auCDtect Task Manager, ver. 1.5.1RC3 build 1.5.1.4
    Copyright (c) 2008-2010 y-soft. All rights reserved
    ANALYZER: auCDtect: CD records authenticity detector, version 0.8.2
    Copyright (c) 2004 Oleg Berngardt. All rights reserved.
    Copyright (c) 2004 Alexander Djourik. All rights reserved.
    FILE: 08 - Symphonie Nr. 2 - IV. Allegro con spirito.flac
    Size: 50604134 Hash: FA9CC43FA630D94ACA914999AA5A250E Accuracy: -m0
    Conclusion: CDDA 100%
    Signature: FD142737D2003E5EE26E851A3589880DDF0CB99C
    FILE: 07 - Symphonie Nr. 2 - III. Allegretto grazioso (quasi Andantino). - Presto ma non assai.flac
    Size: 23017919 Hash: 7A8CF38D3BFFA380A1AF5B965B2DDBBE Accuracy: -m0
    Conclusion: CDDA 100%
    Signature: EA0154263B86F31564BD93506793EE43C429B632
    FILE: 06 - Symphonie Nr. 2 - II. Adagio non troppo. - L'istesso tempo, ma grazioso.flac
    Size: 42312952 Hash: 2E72FDC4DC553C3527F8202E1B3DE41A Accuracy: -m0
    Conclusion: CDDA 100%
    Signature: 2CFAD470E4284C2C5D358365D18B85EDAB10C1EE
    FILE: 05 - Symphonie Nr. 2 - I. Allegro non troppo.flac
    Size: 77549985 Hash: 233158BB3E6760F6AF79B3131765BC92 Accuracy: -m0
    Conclusion: CDDA 100%
    Signature: D36E94D79139127AB52E5EB4D33149F344000DF2
    FILE: 04 - Symphonie Nr. 3 - IV. Allegro.flac
    Size: 42084547 Hash: A14A394BEB50DAECF0E6103EC07C9F3C Accuracy: -m0
    Conclusion: CDDA 100%
    Signature: 39DA46DB974731FD977060144B18FBE72064B597
    FILE: 03 - Symphonie Nr. 3 - III. Poco Allegretto.flac
    Size: 29108830 Hash: 2DFE56F3177726A5AB6FF247D0509DFF Accuracy: -m0
    Conclusion: CDDA 100%
    Signature: F15436EB00D902BA681B944B7855F0BD78C8554E
    FILE: 02 - Symphonie Nr. 3 - II. Andante.flac
    Size: 41381713 Hash: D3B0D10CF76CD9844B4D8C16128EB709 Accuracy: -m0
    Conclusion: CDDA 100%
    Signature: FF3A7803CCE29A367683E2BC1196447EB8D6C623
    FILE: 01 - Symphonie Nr. 3 - I. Allegro con brio. - Un poco sostenuto. - Tempo I.flac
    Size: 65575883 Hash: 4DE3F93C30B31AB49585FB75C485E095 Accuracy: -m0
    Conclusion: CDDA 100%
    Signature: 9DCCE0D7F82FFB3A77F3C1C2457F5BE93161195D

    CD 3: Klavierkonzert Nr. 1 • Lieder

    -----------------------
    DON'T MODIFY THIS FILE
    -----------------------
    PERFORMER: auCDtect Task Manager, ver. 1.5.1RC3 build 1.5.1.4
    Copyright (c) 2008-2010 y-soft. All rights reserved
    ANALYZER: auCDtect: CD records authenticity detector, version 0.8.2
    Copyright (c) 2004 Oleg Berngardt. All rights reserved.
    Copyright (c) 2004 Alexander Djourik. All rights reserved.
    FILE: 11 - Nachtwandler, Op. 86 Nr. 3.flac
    Size: 13606168 Hash: 16CAF2B0FF8E19718AF71D902D508F43 Accuracy: -m0
    Conclusion: CDDA 100%
    Signature: 75EC768F585FC340D68AD9F27D393D7B5CEEF7D7
    FILE: 10 - Wir wandelten, wir zwei zusammen, Op. 96 Nr. 2.flac
    Size: 15199005 Hash: B773921E73DF1CE79FE2091DE300CBDE Accuracy: -m0
    Conclusion: CDDA 100%
    Signature: 51D07F7A94D49EE16A5DFFCE5BF3372C7DDB293F
    FILE: 09 - Von ewiger Liebe, Op. 43 Nr. 1.flac
    Size: 18135978 Hash: FF1DBDF02D8A61F35C6A5C8B1B51A733 Accuracy: -m0
    Conclusion: CDDA 100%
    Signature: E29291CE00C582008A8C2A02842F5399360C7B7D
    FILE: 08 - Junge Liebe I (Meine Liebe ist gruen wie der Fliederbusch), Op. 63 Nr. 5.flac
    Size: 6168392 Hash: 44FF7175222CF2C4FBE91A17611E1B9C Accuracy: -m0
    Conclusion: CDDA 100%
    Signature: 87AB4BCC322EEBE30D0F28AAFE96A74CC70902C4
    FILE: 07 - Heimweh II (O wuesst ich doch den Weg zurueck), Op. 63 Nr. 8.flac
    Size: 12725117 Hash: B97407B9CF6220F2BE7289CEB61CF0C6 Accuracy: -m0
    Conclusion: CDDA 100%
    Signature: 963F0E24E8543A02FECACA7BA9414580F896EFE6
    FILE: 06 - Das Madchen spricht, Op. 107 Nr. 3.flac
    Size: 5030327 Hash: 495274E49D1A66956308ACA5BA275DA6 Accuracy: -m0
    Conclusion: CDDA 100%
    Signature: 07BA007F31B016AA144803A9A93CE202DCEBABD0
    FILE: 05 - Wiegenlied, Op. 49 Nr. 4.flac
    Size: 5361774 Hash: 1F14A0AF473C4C8DBFE36AF864E61FFF Accuracy: -m0
    Conclusion: CDDA 100%
    Signature: 6126BBA9D6FED94443E7B621336A6065E3E411B6
    FILE: 04 - Juchhe!, Op. 6 Nr. 4.flac
    Size: 8710245 Hash: 0D46128CD0C73AF5EB1F6E210A6ECC8F Accuracy: -m0
    Conclusion: CDDA 99%
    Signature: A72C111024EEBB60FFCADF8F5DF5934DCB3AA25C
    FILE: 03 - Klavierkonzert Nr. 1 - III. Rondo. Allegro non troppo.flac
    Size: 49521602 Hash: F4D8E6E4821983D85EE83510BD4CEFA2 Accuracy: -m0
    Conclusion: CDDA 99%
    Signature: 55EDD04E448CF9F5094AA8DD15655C8BBF970F6C
    FILE: 02 - Klavierkonzert Nr. 1 - II. Adagio.flac
    Size: 46256541 Hash: 0CC2ED99F3C01D84776EB7F79731D052 Accuracy: -m0
    Conclusion: CDDA 100%
    Signature: 09E7E416F4881DE143D466F32954B2326B756885
    FILE: 01 - Klavierkonzert Nr. 1 - I. Maestoso.flac
    Size: 92167430 Hash: 64605604D82D4C50314988522C66D8F4 Accuracy: -m0
    Conclusion: CDDA 100%
    Signature: A339A175857C7D888A4FFCA2FF791A5625CD1A13

    CD 4: Ein deutsches Requiem

    -----------------------
    DON'T MODIFY THIS FILE
    -----------------------
    PERFORMER: auCDtect Task Manager, ver. 1.5.1RC3 build 1.5.1.4
    Copyright (c) 2008-2010 y-soft. All rights reserved
    ANALYZER: auCDtect: CD records authenticity detector, version 0.8.2
    Copyright (c) 2004 Oleg Berngardt. All rights reserved.
    Copyright (c) 2004 Alexander Djourik. All rights reserved.
    FILE: 07 - Ein deutsches Requiem - VII. Selig sind die Toten.flac
    Size: 42921139 Hash: FAC46506726FE0FB3174A79A817AB8CE Accuracy: -m0
    Conclusion: CDDA 100%
    Signature: F6BA742C884DE44225F43C5FB443D5187E529044
    FILE: 06 - Ein deutsches Requiem - VI. Denn wir haben hie keine bleibende Statt.flac
    Size: 57923702 Hash: 702612AB1739A6E66E18A7AF87F79ADE Accuracy: -m0
    Conclusion: CDDA 100%
    Signature: FED463DB7045F51C7F997EC6FD06FD5CB1BEE14C
    FILE: 05 - Ein deutsches Requiem - V. Ihr habt nun Traurigkeit.flac
    Size: 26137205 Hash: A9ECCBC62AECA80C856A2785C026D549 Accuracy: -m0
    Conclusion: CDDA 100%
    Signature: 9FCCE7ECDE090EA6AF59ACD4273EFCA27C7E6D6B
    FILE: 04 - Ein deutsches Requiem - IV. Wie lieblich sind deine Wohnungen.flac
    Size: 24128379 Hash: 2361EACA8B480D022932542D4A90EE04 Accuracy: -m0
    Conclusion: CDDA 100%
    Signature: A0DA1679A4E56A7C72FF9F735C40D219BFCF788C
    FILE: 03 - Ein deutsches Requiem - III. Herr, lehre doch mich.flac
    Size: 48586065 Hash: FC884C97E8CAFE5FC7BCE3F730BF2D93 Accuracy: -m0
    Conclusion: CDDA 100%
    Signature: 6ADD20DE64AAC18272CD32606C61092946832543
    FILE: 02 - Ein deutsches Requiem - II. Denn alles Fleisch, es ist wie Gras.flac
    Size: 68655631 Hash: 6514B4E7098C87FBBE69505DF2A9B218 Accuracy: -m0
    Conclusion: CDDA 100%
    Signature: F7EB54AC826AE78DFD54EE38DE7335E10C9FDE47
    FILE: 01 - Ein deutsches Requiem - I. Selig sind, die da Leid tragen.flac
    Size: 33905798 Hash: 28DD09ED257B6A60CF7EC8E3F71AD4CF Accuracy: -m0
    Conclusion: CDDA 100%
    Signature: 449FB5AC638B300866051ADF07F495BC61CF61BA

    CUETools logs / Отчёты CUEToolsCD 1: Symphonien Nrn. 1, 4

    [CUETools log; Date: 23.06.2015 10:06:46; Version: 2.1.4]
    [AccurateRip ID: 0019a94f-00aa8da3-8712f108] found.
    Track [ CRC | V2 ] Status
    01 [f7acc03d|218126b5] (04+12/24) Accurately ripped
    02 [17271c91|1c2bc961] (04+12/24) Accurately ripped
    03 [d5061bc6|07967adf] (04+12/24) Accurately ripped
    04 [46ecacff|6571ad89] (04+12/24) Accurately ripped
    05 [8138adb5|7158d660] (04+12/24) Accurately ripped
    06 [2d3abbd9|c310351a] (04+12/24) Accurately ripped
    07 [05a22451|5928d697] (04+12/24) Accurately ripped
    08 [23a340cc|985d718c] (04+12/24) Accurately ripped
    Offsetted by -48:
    01 [0d300259] (02/24) Accurately ripped
    02 [ab4a96ca] (02/24) Accurately ripped
    03 [b1f74ecf] (02/24) Accurately ripped
    04 [2de77e45] (02/24) Accurately ripped
    05 [8237fd42] (02/24) Accurately ripped
    06 [5bafd782] (02/24) Accurately ripped
    07 [b9a7fa12] (02/24) Accurately ripped
    08 [cba67561] (02/24) Accurately ripped
    Offsetted by -36:
    01 [7c44a2ff] (00/24) No match (V2 was not tested)
    02 [8b49604c] (00/24) No match (V2 was not tested)
    03 [8325a57b] (00/24) No match (V2 was not tested)
    04 [fa638d7d] (00/24) No match (V2 was not tested)
    05 [db65751a] (00/24) No match (V2 was not tested)
    06 [85a8aa99] (00/24) No match (V2 was not tested)
    07 [9d8dafe5] (00/24) No match (V2 was not tested)
    08 [63043117] (00/24) No match (V2 was not tested)
    Track Peak [ CRC32 ] [W/O NULL] [ LOG ]
    -- 88,0 [24F126D1] [C5975EEB]
    01 87,9 [29675E2D] [966E5250] CRC32
    02 80,7 [D0D4B3FF] [4BA24D77] CRC32
    03 85,6 [038EF5A5] [DDA4B97B] CRC32
    04 87,9 [32DC36B0] [5A56BB79] CRC32
    05 88,0 [4BA83067] [719CE0E2] CRC32
    06 87,9 [C25200E2] [CF2A9EF8] CRC32
    07 87,9 [FF1D37D1] [6EFFD48C] CRC32
    08 87,9 [27F50F64] [3FDD175C] CRC32

    CD 2: Symphonien Nrn. 2, 3

    [CUETools log; Date: 23.06.2015 10:07:04; Version: 2.1.4]
    [AccurateRip ID: 00195d97-00a6a781-66123d08] found.
    Track [ CRC | V2 ] Status
    01 [49347cee|f58ee983] (04+13/23) Accurately ripped
    02 [a421b842|405f38ac] (05+13/24) Accurately ripped
    03 [3eabe39a|14763ec6] (05+13/24) Accurately ripped
    04 [31c26954|2dcf63ef] (05+13/24) Accurately ripped
    05 [49426d56|d2b10c1c] (05+13/25) Accurately ripped
    06 [98e293a3|d01b1f31] (05+13/25) Accurately ripped
    07 [d430a2b4|ee539398] (04+13/24) Accurately ripped
    08 [b05b23be|398b3374] (04+13/23) Accurately ripped
    Offsetted by 347:
    01 [f38d34d4] (02/23) Accurately ripped
    02 [99470eea] (02/24) Accurately ripped
    03 [9c876769] (02/24) Accurately ripped
    04 [f61c13fa] (02/24) Accurately ripped
    05 [c7b15491] (02/25) Accurately ripped
    06 [acea7d3b] (02/25) Accurately ripped
    07 [497e12a7] (02/24) Accurately ripped
    08 [86a55c3e] (02/23) Accurately ripped
    Track Peak [ CRC32 ] [W/O NULL] [ LOG ]
    -- 91,8 [5FD8014A] [93DFAAE1]
    01 89,5 [6C7BD679] [C2CCDE54] CRC32
    02 88,2 [35A9638D] [CB493DB6] CRC32
    03 49,8 [55C2BA88] [D85ADA28] CRC32
    04 91,8 [B6805D33] [9FF9E6B8] CRC32
    05 87,9 [4D10988D] [FE0C54F8] CRC32
    06 87,9 [FA87640F] [A03F2CE4] CRC32
    07 79,2 [4A1453E4] [A23715CD] CRC32
    08 88,0 [1375E2C4] [C123C853] CRC32

    CD 3: Klavierkonzert Nr. 1 • Lieder

    [CUETools log; Date: 23.06.2015 10:07:18; Version: 2.1.4]
    [AccurateRip ID: 00290119-013ce732-9111140b] found.
    Track [ CRC | V2 ] Status
    01 [64faff21|7304d5de] (04+13/17) Accurately ripped
    02 [16ffe2cc|9c01a2a6] (04+13/17) Accurately ripped
    03 [d4666c03|b58c4d04] (04+13/17) Accurately ripped
    04 [f16c2358|ca70c5ae] (04+13/17) Accurately ripped
    05 [a1af7992|b8a56d1f] (04+13/17) Accurately ripped
    06 [011b3927|37077206] (04+13/17) Accurately ripped
    07 [98ef609d|4ad5af83] (04+13/17) Accurately ripped
    08 [958d4a77|fea9a0d5] (04+13/17) Accurately ripped
    09 [023b28e5|d536d963] (04+13/17) Accurately ripped
    10 [fbe27a98|c77fd34f] (04+13/17) Accurately ripped
    11 [ce20ae24|cb8ce2e7] (04+13/17) Accurately ripped
    Track Peak [ CRC32 ] [W/O NULL] [ LOG ]
    -- 91,7 [8156F12E] [16F53DB6]
    01 91,4 [EB1477FF] [EDCDE91B] CRC32
    02 35,5 [6E4A2AF2] [941DBE8D] CRC32
    03 74,7 [2B61774A] [1FADBFA9] CRC32
    04 86,9 [21E9E5E8] [0354124A] CRC32
    05 10,2 [DDE78C66] [A63B2EC8] CRC32
    06 46,9 [BD66DCF6] [5DAC27C3] CRC32
    07 45,0 [46C3E922] [D0D0510D] CRC32
    08 79,0 [26124EA3] [09DB4960] CRC32
    09 91,7 [A08939BC] [FF34E9B1] CRC32
    10 33,3 [1C8DC9C9] [47AE889A] CRC32
    11 33,4 [E3920CDA] [23F43CED] CRC32

    CD 4: Ein deutsches Requiem

    [CUETools log; Date: 23.06.2015 10:07:30; Version: 2.1.4]
    [AccurateRip ID: 00143dad-007764e4-6310a507] found.
    Track [ CRC | V2 ] Status
    01 [a6fd9aae|7a5aa1c4] (07+14/24) Accurately ripped
    02 [724af5e3|89d785b5] (07+14/24) Accurately ripped
    03 [95a9abc9|b41ab279] (07+14/24) Accurately ripped
    04 [39b9b634|13d758fb] (07+14/24) Accurately ripped
    05 [e4f22742|7124fb7d] (07+14/24) Accurately ripped
    06 [14820565|ac03d0af] (07+14/24) Accurately ripped
    07 [7f72df31|ddfa2cda] (07+14/24) Accurately ripped
    Offsetted by 682:
    01 [6c653b10] (00/24) No match (V2 was not tested)
    02 [9c9dd0d3] (00/24) No match (V2 was not tested)
    03 [5ece03fe] (00/24) No match (V2 was not tested)
    04 [453c4c9c] (00/24) No match (V2 was not tested)
    05 [9fd6bf71] (00/24) No match (V2 was not tested)
    06 [1b49f71f] (00/24) No match (V2 was not tested)
    07 [37d6f2f9] (00/24) No match (V2 was not tested)
    Track Peak [ CRC32 ] [W/O NULL] [ LOG ]
    -- 98,8 [C67366CE] [54BF821E]
    01 97,5 [ED93A6D6] [6DA810C1] CRC32
    02 98,1 [19DF66FA] [8F0E09F8] CRC32
    03 98,8 [C756E332] [6A42CC92] CRC32
    04 98,8 [F47F507B] [756C9BB0] CRC32
    05 75,7 [3DDD6D46] [CA07F4EB] CRC32
    06 98,8 [D6A24E35] [1309D4F6] CRC32
    07 94,6 [79E3D36E] [C3939AEC] CRC32

    CUE sheetsCD 1: Symphonien Nrn. 1, 4

    TITLE "Johannes Brahms: Symphonien • Lieder • Klavierkonzert Nr. 1 • Ein deutsches Requiem"
    PERFORMER "James Levine"
    REM GENRE Classical
    REM DISCID 8712F108
    REM COMMENT "ExactAudioCopy v1.0b3"
    CATALOG 0886976860424
    FILE "01 - Symphonie Nr. 1 - I. Un poco sostenuto. - Allegro. - Meno Allegro.flac" WAVE
    TRACK 01 AUDIO
    TITLE "Symphonie Nr. 1 c-moll, Op. 68: I. Un poco sostenuto. — Allegro. — Meno Allegro"
    PERFORMER "Chicago Symphony Orchestra. James Levine, conductor"
    REM DATE 1975
    INDEX 01 00:00:00
    FILE "02 - Symphonie Nr. 1 - II. Andante sostenuto.flac" WAVE
    TRACK 02 AUDIO
    TITLE "Symphonie Nr. 1 c-moll, Op. 68: II. Andante sostenuto"
    PERFORMER "Chicago Symphony Orchestra. James Levine, conductor"
    REM DATE 1975
    INDEX 01 00:00:00
    FILE "03 - Symphonie Nr. 1 - III. Un poco Allegretto e grazioso.flac" WAVE
    TRACK 03 AUDIO
    TITLE "Symphonie Nr. 1 c-moll, Op. 68: III. Un poco Allegretto e grazioso"
    PERFORMER "Chicago Symphony Orchestra. James Levine, conductor"
    REM DATE 1975
    INDEX 01 00:00:00
    FILE "04 - Symphonie Nr. 1 - IV. Adagio. - Allegro non troppo, ma con brio.flac" WAVE
    TRACK 04 AUDIO
    TITLE "Symphonie Nr. 1 c-moll, Op. 68: IV. Adagio. — Allegro non troppo, ma con brio"
    PERFORMER "Chicago Symphony Orchestra. James Levine, conductor"
    REM DATE 1975
    INDEX 01 00:00:00
    TRACK 05 AUDIO
    TITLE "Symphonie Nr. 4 e-moll, Op. 98: I. Allegro non troppo"
    PERFORMER "Chicago Symphony Orchestra. James Levine, conductor"
    REM DATE 1976
    INDEX 00 16:52:20
    FILE "05 - Symphonie Nr. 4 - I. Allegro non troppo.flac" WAVE
    INDEX 01 00:00:00
    FILE "06 - Symphonie Nr. 4 - II. Andante moderato.flac" WAVE
    TRACK 06 AUDIO
    TITLE "Symphonie Nr. 4 e-moll, Op. 98: II. Andante moderato"
    PERFORMER "Chicago Symphony Orchestra. James Levine, conductor"
    REM DATE 1976
    INDEX 01 00:00:00
    FILE "07 - Symphonie Nr. 4 - III. Allegro giocoso. - Poco meno Presto. - Tempo I.flac" WAVE
    TRACK 07 AUDIO
    TITLE "Symphonie Nr. 4 e-moll, Op. 98: III. Allegro giocoso. — Poco meno Presto. — Tempo I"
    PERFORMER "Chicago Symphony Orchestra. James Levine, conductor"
    REM DATE 1976
    INDEX 01 00:00:00
    FILE "08 - Symphonie Nr. 4 - IV. Allegro energico e passionato. - Piu Allegro.flac" WAVE
    TRACK 08 AUDIO
    TITLE "Symphonie Nr. 4 e-moll, Op. 98: IV. Allegro energico e passionato. — Più Allegro"
    PERFORMER "Chicago Symphony Orchestra. James Levine, conductor"
    REM DATE 1976
    INDEX 01 00:00:00

    CD 2: Symphonien Nrn. 2, 3

    TITLE "Johannes Brahms: Symphonien • Lieder • Klavierkonzert Nr. 1 • Ein deutsches Requiem"
    PERFORMER "James Levine"
    REM GENRE Classical
    REM DISCID 66123D08
    REM COMMENT "ExactAudioCopy v1.0b3"
    CATALOG 0886976860424
    FILE "01 - Symphonie Nr. 3 - I. Allegro con brio. - Un poco sostenuto. - Tempo I.flac" WAVE
    TRACK 01 AUDIO
    TITLE "Symphonie Nr. 3 F-dur, Op. 90: I. Allegro con brio. — Un poco sostenuto. — Tempo I"
    PERFORMER "Chicago Symphony Orchestra. James Levine, conductor"
    REM DATE 1976
    INDEX 01 00:00:00
    FILE "02 - Symphonie Nr. 3 - II. Andante.flac" WAVE
    TRACK 02 AUDIO
    TITLE "Symphonie Nr. 3 F-dur, Op. 90: II. Andante"
    PERFORMER "Chicago Symphony Orchestra. James Levine, conductor"
    REM DATE 1976
    INDEX 01 00:00:00
    FILE "03 - Symphonie Nr. 3 - III. Poco Allegretto.flac" WAVE
    TRACK 03 AUDIO
    TITLE "Symphonie Nr. 3 F-dur, Op. 90: III. Poco Allegretto"
    PERFORMER "Chicago Symphony Orchestra. James Levine, conductor"
    REM DATE 1976
    INDEX 01 00:00:00
    FILE "04 - Symphonie Nr. 3 - IV. Allegro.flac" WAVE
    TRACK 04 AUDIO
    TITLE "Symphonie Nr. 3 F-dur, Op. 90: IV. Allegro"
    PERFORMER "Chicago Symphony Orchestra. James Levine, conductor"
    REM DATE 1976
    INDEX 01 00:00:00
    TRACK 05 AUDIO
    TITLE "Symphonie Nr. 2 D-dur, Op. 73: I. Allegro non troppo"
    PERFORMER "Chicago Symphony Orchestra. James Levine, conductor"
    REM DATE 1976
    INDEX 00 08:38:62
    FILE "05 - Symphonie Nr. 2 - I. Allegro non troppo.flac" WAVE
    INDEX 01 00:00:00
    FILE "06 - Symphonie Nr. 2 - II. Adagio non troppo. - L'istesso tempo, ma grazioso.flac" WAVE
    TRACK 06 AUDIO
    TITLE "Symphonie Nr. 2 D-dur, Op. 73: II. Adagio non troppo. — L'istesso tempo, ma grazioso"
    PERFORMER "Chicago Symphony Orchestra. James Levine, conductor"
    REM DATE 1976
    INDEX 01 00:00:00
    FILE "07 - Symphonie Nr. 2 - III. Allegretto grazioso (quasi Andantino). - Presto ma non assai.flac" WAVE
    TRACK 07 AUDIO
    TITLE "Symphonie Nr. 2 D-dur, Op. 73: III. Allegretto grazioso (quasi Andantino). — Presto ma non assai"
    PERFORMER "Chicago Symphony Orchestra. James Levine, conductor"
    REM DATE 1976
    INDEX 01 00:00:00
    FILE "08 - Symphonie Nr. 2 - IV. Allegro con spirito.flac" WAVE
    TRACK 08 AUDIO
    TITLE "Symphonie Nr. 2 D-dur, Op. 73: IV. Allegro con spirito"
    PERFORMER "Chicago Symphony Orchestra. James Levine, conductor"
    REM DATE 1976
    INDEX 01 00:00:00

    CD 3: Klavierkonzert Nr. 1 • Lieder

    TITLE "Johannes Brahms: Symphonien • Lieder • Klavierkonzert Nr. 1 • Ein deutsches Requiem"
    PERFORMER "James Levine"
    REM GENRE Classical
    REM DISCID 9111140B
    REM COMMENT "ExactAudioCopy v1.0b3"
    CATALOG 0886976860424
    FILE "01 - Klavierkonzert Nr. 1 - I. Maestoso.flac" WAVE
    TRACK 01 AUDIO
    TITLE "Klavierkonzert Nr. 1 d-moll, Op. 15: I. Maestoso"
    PERFORMER "Emanuel Ax, Chicago Symphony Orchestra. James Levine, conductor"
    REM DATE 1983
    INDEX 01 00:00:00
    FILE "02 - Klavierkonzert Nr. 1 - II. Adagio.flac" WAVE
    TRACK 02 AUDIO
    TITLE "Klavierkonzert Nr. 1 d-moll, Op. 15: II. Adagio"
    PERFORMER "Emanuel Ax, Chicago Symphony Orchestra. James Levine, conductor"
    REM DATE 1983
    INDEX 01 00:00:00
    FILE "03 - Klavierkonzert Nr. 1 - III. Rondo. Allegro non troppo.flac" WAVE
    TRACK 03 AUDIO
    TITLE "Klavierkonzert Nr. 1 d-moll, Op. 15: III. Rondo: Allegro non troppo"
    PERFORMER "Emanuel Ax, Chicago Symphony Orchestra. James Levine, conductor"
    REM DATE 1983
    INDEX 01 00:00:00
    TRACK 04 AUDIO
    TITLE "«Juchhe!», Op. 6 Nr. 4"
    PERFORMER "Kathleen Battle, Chicago Symphony Orchestra. James Levine, conductor"
    REM DATE 1983
    INDEX 00 12:23:01
    FILE "04 - Juchhe!, Op. 6 Nr. 4.flac" WAVE
    INDEX 01 00:00:00
    FILE "05 - Wiegenlied, Op. 49 Nr. 4.flac" WAVE
    TRACK 05 AUDIO
    TITLE "«Wiegenlied», Op. 49 Nr. 4"
    PERFORMER "Håkan Hagegård, Chicago Symphony Orchestra. James Levine, conductor"
    REM DATE 1983
    INDEX 01 00:00:00
    FILE "06 - Das Madchen spricht, Op. 107 Nr. 3.flac" WAVE
    TRACK 06 AUDIO
    TITLE "«Das Madchen spricht», Op. 107 Nr. 3"
    PERFORMER "Kathleen Battle, Chicago Symphony Orchestra. James Levine, conductor"
    REM DATE 1983
    INDEX 01 00:00:00
    FILE "07 - Heimweh II (O wuesst ich doch den Weg zurueck), Op. 63 Nr. 8.flac" WAVE
    TRACK 07 AUDIO
    TITLE "«Heimweh II» («O wüßt ich doch den Weg zurück»), Op. 63 Nr. 8"
    PERFORMER "Håkan Hagegård, Chicago Symphony Orchestra. James Levine, conductor"
    REM DATE 1983
    INDEX 01 00:00:00
    FILE "08 - Junge Liebe I (Meine Liebe ist gruen wie der Fliederbusch), Op. 63 Nr. 5.flac" WAVE
    TRACK 08 AUDIO
    TITLE "«Junge Liebe I» («Meine Liebe ist grün wie der Fliederbusch»), Op. 63 Nr. 5"
    PERFORMER "Kathleen Battle, Chicago Symphony Orchestra. James Levine, conductor"
    REM DATE 1983
    INDEX 01 00:00:00
    FILE "09 - Von ewiger Liebe, Op. 43 Nr. 1.flac" WAVE
    TRACK 09 AUDIO
    TITLE "«Von ewiger Liebe», Op. 43 Nr. 1"
    PERFORMER "Håkan Hagegård, Chicago Symphony Orchestra. James Levine, conductor"
    REM DATE 1983
    INDEX 01 00:00:00
    FILE "10 - Wir wandelten, wir zwei zusammen, Op. 96 Nr. 2.flac" WAVE
    TRACK 10 AUDIO
    TITLE "«Wir wandelten, wir zwei zusammen», Op. 96 Nr. 2"
    PERFORMER "Kathleen Battle, Chicago Symphony Orchestra. James Levine, conductor"
    REM DATE 1983
    INDEX 01 00:00:00
    FILE "11 - Nachtwandler, Op. 86 Nr. 3.flac" WAVE
    TRACK 11 AUDIO
    TITLE "«Nachtwandler», Op. 86 Nr. 3"
    PERFORMER "Håkan Hagegård, Chicago Symphony Orchestra. James Levine, conductor"
    REM DATE 1983
    INDEX 01 00:00:00

    CD 4: Ein deutsches Requiem

    TITLE "Johannes Brahms: Symphonien • Lieder • Klavierkonzert Nr. 1 • Ein deutsches Requiem"
    PERFORMER "James Levine"
    REM GENRE Classical
    REM DISCID 6310A507
    REM COMMENT "ExactAudioCopy v1.0b3"
    CATALOG 0886976860424
    FILE "01 - Ein deutsches Requiem - I. Selig sind, die da Leid tragen.flac" WAVE
    TRACK 01 AUDIO
    TITLE "Ein deutsches Requiem, Op. 45: I. «Selig sind, die da Leid tragen, denn sie sollen getröstet werden»"
    PERFORMER "Chicago Symphony Chorus & Orchestra. James Levine, conductor"
    REM DATE 1983
    INDEX 01 00:00:00
    FILE "02 - Ein deutsches Requiem - II. Denn alles Fleisch, es ist wie Gras.flac" WAVE
    TRACK 02 AUDIO
    TITLE "Ein deutsches Requiem, Op. 45: II. «Denn alles Fleisch, es ist wie Gras»"
    PERFORMER "Chicago Symphony Chorus & Orchestra. James Levine, conductor"
    REM DATE 1983
    INDEX 01 00:00:00
    FILE "03 - Ein deutsches Requiem - III. Herr, lehre doch mich.flac" WAVE
    TRACK 03 AUDIO
    TITLE "Ein deutsches Requiem, Op. 45: III. «Herr, lehre doch mich, daß ein Ende mit mir haben muß»"
    PERFORMER "Håkan Hagegård, Chicago Symphony Chorus & Orchestra. James Levine, conductor"
    REM DATE 1983
    INDEX 01 00:00:00
    FILE "04 - Ein deutsches Requiem - IV. Wie lieblich sind deine Wohnungen.flac" WAVE
    TRACK 04 AUDIO
    TITLE "Ein deutsches Requiem, Op. 45: IV. «Wie lieblich sind deine Wohnungen, Herr Zebaoth!»"
    PERFORMER "Chicago Symphony Chorus & Orchestra. James Levine, conductor"
    REM DATE 1983
    INDEX 01 00:00:00
    FILE "05 - Ein deutsches Requiem - V. Ihr habt nun Traurigkeit.flac" WAVE
    TRACK 05 AUDIO
    TITLE "Ein deutsches Requiem, Op. 45: V. «Ihr habt nun Traurigkeit»"
    PERFORMER "Kathleen Battle, Chicago Symphony Chorus & Orchestra. James Levine, conductor"
    REM DATE 1983
    INDEX 01 00:00:00
    FILE "06 - Ein deutsches Requiem - VI. Denn wir haben hie keine bleibende Statt.flac" WAVE
    TRACK 06 AUDIO
    TITLE "Ein deutsches Requiem, Op. 45: VI. «Denn wir haben hie keine bleibende Statt»"
    PERFORMER "Håkan Hagegård, Chicago Symphony Chorus & Orchestra. James Levine, conductor"
    REM DATE 1983
    INDEX 01 00:00:00
    FILE "07 - Ein deutsches Requiem - VII. Selig sind die Toten.flac" WAVE
    TRACK 07 AUDIO
    TITLE "Ein deutsches Requiem, Op. 45: VII. «Selig sind die Toten, die in dem Herrn sterben»"
    PERFORMER "Chicago Symphony Chorus & Orchestra. James Levine, conductor"
    REM DATE 1983
    INDEX 01 00:00:00



  • Показать сообщения:    

    Текущее время: 03-Дек 07:41

    Часовой пояс: UTC + 3


    Вы не можете начинать темы
    Вы не можете отвечать на сообщения
    Вы не можете редактировать свои сообщения
    Вы не можете удалять свои сообщения
    Вы не можете голосовать в опросах
    Вы не можете прикреплять файлы к сообщениям
    Вы не можете скачивать файлы