(Classical) Чайковский - Симфония № 6 «Патетическая» • Серенада для струнных / Tchaikovsky - Symphonie n° 6 «Pathetique» • Serenade pour cordes (for strings) (Concertgebouworkest, Willem Mengelberg, 1941/1938) - 2004, FLAC (tracks+.cue) lossless


 

[Цитировать]

Пётр Ильич Чайковский | Pyotr Ilyich Tchaikovsky
(1840–1893)



Симфония № 6 «Патетическая» | Серенада для струнных
Symphonie n° 6 «Pathétique» | Sérénade pour cordes


Concertgebouworkest Amsterdam
Willem Mengelberg conductor


Жанр: Classical / Symphony / Orchestral
Даты и место записи: Concertgebouw, Amsterdam, 1941, 1938
Формат записи: ADD, Mono
Год издания диска: 2004
Издатель (лейбл): NAXOS Historical
Номер по каталогу: 8.110885
Аудиокодек: FLAC
Тип рипа: tracks+.cue
Битрейт аудио: lossless
Продолжительность: 1:10:08
Наличие сканов в содержимом раздачи: да
Источник: What.CD
Релизёр: PCzar


Tracklist / Треклист
Симфония № 6 си минор «Патетическая», Op. 74 - 43:51
I. Adagio. — Allegro non troppo. — Moderato. — Allegro vivo - 17:04
  • II. Allegro con grazia - 8:19
  • III. Allegro molto vivace - 8:48
  • IV. Finale: Adagio lamentoso. — Andante - 9:41
    Recorded: Concertgebouw, Amsterdam, 22 April 1941
    Серенада для струнных до мажор, Op. 48 - 26:17
    I. Pezzo en forma di sonatina: Andante non troppo. — Allegro moderato - 9:02
  • II. Valse: Moderato. Tempo di Valse - 4:02
  • III. Elegia: Larghetto elegiaco - 7:30
  • IV. Finale (Tema russo): Andante. — Allegro con spirito - 5:43
    Recorded: Concertgebouw, Amsterdam, 7 November 1938

    -

    EAC log / Отчёт EAC

    Exact Audio Copy V1.0 beta 3 from 29. August 2011
    EAC extraction logfile from 29. August 2013, 11:40
    Willem Mengelberg, Concertgebouw Orchestra of Amsterdam / Great Conductors - Mengelberg - Tchaikovsky
    Used drive : TSSTcorpCDDVDW SH-222BB Adapter: 2 ID: 0
    Read mode : Secure
    Utilize accurate stream : Yes
    Defeat audio cache : Yes
    Make use of C2 pointers : No
    Read offset correction : 6
    Overread into Lead-In and Lead-Out : No
    Fill up missing offset samples with silence : Yes
    Delete leading and trailing silent blocks : No
    Null samples used in CRC calculations : Yes
    Used interface : Native Win32 interface for Win NT & 2000
    Gap handling : Appended to previous track
    Used output format : User Defined Encoder
    Selected bitrate : 192 kBit/s
    Quality : High
    Add ID3 tag : No
    Command line compressor : C:\Program Files (x86)\FLAC\flac.exe
    Additional command line options : -T "artist=%artist%" -T "title=%title%" -T "album=%albumtitle%" -T "date=%year%" -T "tracknumber=%tracknr%" -T "genre=%genre%" -T "comment=%comment%" -T "composer=%composer%" -8 %source%
    TOC of the extracted CD
    Track | Start | Length | Start sector | End sector
    ---------------------------------------------------------
    1 | 0:00.00 | 17:03.47 | 0 | 76771
    2 | 17:03.47 | 8:19.33 | 76772 | 114229
    3 | 25:23.05 | 8:47.65 | 114230 | 153819
    4 | 34:10.70 | 9:40.42 | 153820 | 197361
    5 | 43:51.37 | 9:01.65 | 197362 | 238001
    6 | 52:53.27 | 4:01.70 | 238002 | 256146
    7 | 56:55.22 | 7:29.50 | 256147 | 289871
    8 | 64:24.72 | 5:43.03 | 289872 | 315599
    Track 1
    Filename H:\EAC NEW Rips\01 - Symphony Nr. 6 in B minor, Op. 74 'Pathetique' - I. Adagio - Allegro non troppo.wav
    Pre-gap length 0:00:02.00
    Peak level 75.8 %
    Extraction speed 5.3 X
    Track quality 100.0 %
    Test CRC 98C75E7C
    Copy CRC 98C75E7C
    Accurately ripped (confidence 2) [1A4F0B53] (AR v1)
    Copy OK
    Track 2
    Filename H:\EAC NEW Rips\02 - Symphony Nr. 6 in B minor, Op. 74 'Pathetique' - II. Allegro con grazia.wav
    Pre-gap length 0:00:07.73
    Peak level 68.8 %
    Extraction speed 6.3 X
    Track quality 100.0 %
    Test CRC 9F536F64
    Copy CRC 9F536F64
    Accurately ripped (confidence 2) [2E1FF679] (AR v1)
    Copy OK
    Track 3
    Filename H:\EAC NEW Rips\03 - Symphony Nr. 6 in B minor, Op. 74 'Pathetique' - III. Allegro molto vivace.wav
    Pre-gap length 0:00:06.06
    Peak level 84.5 %
    Extraction speed 6.2 X
    Track quality 99.9 %
    Test CRC DAD80142
    Copy CRC DAD80142
    Accurately ripped (confidence 2) [0964AA4F] (AR v1)
    Copy OK
    Track 4
    Filename H:\EAC NEW Rips\04 - Symphony Nr. 6 in B minor, Op. 74 'Pathetique' - IV. Finale. Adagio lamentoso.wav
    Pre-gap length 0:00:05.73
    Peak level 63.2 %
    Extraction speed 7.5 X
    Track quality 100.0 %
    Test CRC 0CABC82A
    Copy CRC 0CABC82A
    Accurately ripped (confidence 2) [39B9553F] (AR v1)
    Copy OK
    Track 5
    Filename H:\EAC NEW Rips\05 - Serenade for Strings in C major, Op. 48 - I. Pezzo in forma sonatina. Andante non troppo - Allegro moderato.wav
    Pre-gap length 0:00:08.73
    Peak level 63.2 %
    Extraction speed 8.0 X
    Track quality 100.0 %
    Test CRC 886949F3
    Copy CRC 886949F3
    Accurately ripped (confidence 2) [9448563E] (AR v1)
    Copy OK
    Track 6
    Filename H:\EAC NEW Rips\06 - Serenade for Strings in C major, Op. 48 - II. Waltz. Moderato (Tempo di valse).wav
    Pre-gap length 0:00:05.40
    Peak level 59.3 %
    Extraction speed 7.7 X
    Track quality 100.0 %
    Test CRC 16F217A7
    Copy CRC 16F217A7
    Accurately ripped (confidence 2) [29876ACB] (AR v1)
    Copy OK
    Track 7
    Filename H:\EAC NEW Rips\07 - Serenade for Strings in C major, Op. 48 - III. Elegie. Larghetto elegiaco.wav
    Pre-gap length 0:00:05.86
    Peak level 64.2 %
    Extraction speed 8.5 X
    Track quality 100.0 %
    Test CRC 4ED79F9F
    Copy CRC 4ED79F9F
    Accurately ripped (confidence 2) [189AE320] (AR v1)
    Copy OK
    Track 8
    Filename H:\EAC NEW Rips\08 - Serenade for Strings in C major, Op. 48 - IV. Finale (Tema russo). Andante - Allegro con spirito.wav
    Pre-gap length 0:00:05.56
    Peak level 62.5 %
    Extraction speed 8.6 X
    Track quality 100.0 %
    Test CRC BBA95A94
    Copy CRC BBA95A94
    Accurately ripped (confidence 2) [2ACADA6D] (AR v1)
    Copy OK
    All tracks accurately ripped
    No errors occurred
    End of status report
    ---- CUETools DB Plugin V2.1.3
    [CTDB TOCID: dyXPo_oKE9XESSLpvxqGhCxF3kY-] found, Submit result: dyXPo_oKE9XESSLpvxqGhCxF3kY- has been confirmed
    [15b176c0] (1/1) Accurately ripped
    ==== Log checksum A7E1FC8392A2C8FB2E9140C9BD746D1072A25D649FA9621EF3935489E842C3DE ====

    auCDtect Task Manager log / Отчёт auCDtect Task Manager

    -----------------------
    DON'T MODIFY THIS FILE
    -----------------------
    PERFORMER: auCDtect Task Manager, ver. 1.5.1RC3 build 1.5.1.4
    Copyright (c) 2008-2010 y-soft. All rights reserved
    ANALYZER: auCDtect: CD records authenticity detector, version 0.8.2
    Copyright (c) 2004 Oleg Berngardt. All rights reserved.
    Copyright (c) 2004 Alexander Djourik. All rights reserved.
    FILE: 04 - Symphonie n. 6 - IV. Finale. Adagio lamentoso. - Andante.flac
    Size: 35089154 Hash: E7828AA1E1BE662954F19D0E117DC4E9 Accuracy: -m0
    Conclusion: CDDA 100%
    Signature: 3F2C178903290571E026A6DB0E496D34EFA8C3E1
    FILE: 03 - Symphonie n. 6 - III. Allegro molto vivace.flac
    Size: 32929148 Hash: FC518A4B24452DA9BC34E306BAF41208 Accuracy: -m0
    Conclusion: CDDA 100%
    Signature: DEE8F378709C0B909FF1C3D677EECD24C679B2D8
    FILE: 02 - Symphonie n. 6 - II. Allegro con grazia.flac
    Size: 31404273 Hash: 0C4778AD5F7631F809920D52460779C4 Accuracy: -m0
    Conclusion: CDDA 100%
    Signature: A70DBD338A135E600142773CC6B2F175BF5A70A9
    FILE: 01 - Symphonie n. 6 - I. Adagio. - Allegro non troppo. - Moderato. - Allegro vivo.flac
    Size: 62750249 Hash: 851DFE1B16A78E05212D93C4C7D24F97 Accuracy: -m0
    Conclusion: CDDA 99%
    Signature: E933338E25C764322A3AF471D623E26D2AFBA0BE
    FILE: 08 - Serenade pour cordes - IV. Finale (Tema russo).flac
    Size: 21264616 Hash: 135C62CD8D0F5921111A4CBE6B4E2E96 Accuracy: -m0
    Conclusion: CDDA 100%
    Signature: 667A9AED1B730187447F367C43058CB87FD1F8BF
    FILE: 07 - Serenade pour cordes - III. Elegia.flac
    Size: 27317652 Hash: 6BB4AC51BBF853BC1B18C11078363AF5 Accuracy: -m0
    Conclusion: CDDA 100%
    Signature: DBC50744427E600556D1462D4A25476ED14554D8
    FILE: 06 - Serenade pour cordes - II. Valse.flac
    Size: 14811848 Hash: 81A01DE617F1C39604815F09B4FC68A7 Accuracy: -m0
    Conclusion: CDDA 100%
    Signature: E8419707B2276D1A4366B9A3F8F10B9E29C782BF
    FILE: 05 - Serenade pour cordes - I. Pezzo en forma di sonatina.flac
    Size: 32872067 Hash: 66B15E4E18ED19337A10AC229C8EA0DC Accuracy: -m0
    Conclusion: CDDA 100%
    Signature: 15DEBAB5C0E49307ACA7A6FD9A354356A37B13CF

    CUETools log / Отчёт CUETools

    [CUETools log; Date: 23.06.2015 11:24:34; Version: 2.1.4]
    [AccurateRip ID: 00190d4d-009fe496-64107008] found.
    Track [ CRC | V2 ] Status
    01 [1a4f0b53|b8d3f9dc] (2+2/4) Accurately ripped
    02 [2e1ff679|7a941b57] (2+2/4) Accurately ripped
    03 [0964aa4f|d79e1345] (2+2/4) Accurately ripped
    04 [39b9553f|a382d984] (2+2/4) Accurately ripped
    05 [9448563e|0eb650cf] (2+2/4) Accurately ripped
    06 [29876acb|1fd0bd34] (2+2/4) Accurately ripped
    07 [189ae320|b8663e38] (2+2/4) Accurately ripped
    08 [2acada6d|f90f76f8] (2+2/4) Accurately ripped
    Offsetted by -18:
    01 [83f216e6] (0/4) No match (V2 was not tested)
    02 [7affc589] (0/4) No match (V2 was not tested)
    03 [7230cf1d] (0/4) No match (V2 was not tested)
    04 [06e1541f] (0/4) No match (V2 was not tested)
    05 [aae3fd70] (0/4) No match (V2 was not tested)
    06 [cd474934] (0/4) No match (V2 was not tested)
    07 [f5cbb736] (0/4) No match (V2 was not tested)
    08 [18dca58f] (0/4) No match (V2 was not tested)
    Track Peak [ CRC32 ] [W/O NULL] [ LOG ]
    -- 84,5 [E089E2BA] [D114FCD4]
    01 75,8 [98C75E7C] [63C7A765] CRC32
    02 68,8 [9F536F64] [6617EDA3] CRC32
    03 84,5 [DAD80142] [936D91EC] CRC32
    04 63,2 [0CABC82A] [AE643EE7] CRC32
    05 63,2 [886949F3] [98575F6B] CRC32
    06 59,3 [16F217A7] [35DA7CF1] CRC32
    07 64,2 [4ED79F9F] [2489FF54] CRC32
    08 62,5 [BBA95A94] [071791F1] CRC32

    CUE sheet

    TITLE "Pyotr Ilyich Tchaikovsky: Symphonie n° 6 «Pathétique» • Sérénade pour cordes"
    PERFORMER "Willem Mengelberg"
    REM GENRE Classical
    REM DISCID 64107008
    REM COMMENT "ExactAudioCopy v1.0b3"
    FILE "01 - Symphonie n. 6 - I. Adagio. - Allegro non troppo. - Moderato. - Allegro vivo.flac" WAVE
    TRACK 01 AUDIO
    TITLE "Symphonie n° 6 en si mineur «Pathétique», Op. 74: I. Adagio. — Allegro non troppo. — Moderato. — Allegro vivo"
    PERFORMER "Concertgebouworkest Amsterdam. Willem Mengelberg, conductor"
    REM DATE 1941
    INDEX 01 00:00:00
    TRACK 02 AUDIO
    TITLE "Symphonie n° 6 en si mineur «Pathétique», Op. 74: II. Allegro con grazia"
    PERFORMER "Concertgebouworkest Amsterdam. Willem Mengelberg, conductor"
    REM DATE 1941
    INDEX 00 16:55:67
    FILE "02 - Symphonie n. 6 - II. Allegro con grazia.flac" WAVE
    INDEX 01 00:00:00
    TRACK 03 AUDIO
    TITLE "Symphonie n° 6 en si mineur «Pathétique», Op. 74: III. Allegro molto vivace"
    PERFORMER "Concertgebouworkest Amsterdam. Willem Mengelberg, conductor"
    REM DATE 1941
    INDEX 00 08:13:28
    FILE "03 - Symphonie n. 6 - III. Allegro molto vivace.flac" WAVE
    INDEX 01 00:00:00
    TRACK 04 AUDIO
    TITLE "Symphonie n° 6 en si mineur «Pathétique», Op. 74: IV. Finale: Adagio lamentoso. — Andante"
    PERFORMER "Concertgebouworkest Amsterdam. Willem Mengelberg, conductor"
    REM DATE 1941
    INDEX 00 08:42:10
    FILE "04 - Symphonie n. 6 - IV. Finale. Adagio lamentoso. - Andante.flac" WAVE
    INDEX 01 00:00:00
    TRACK 05 AUDIO
    TITLE "Sérénade pour cordes en ut majeur, Op. 48: I. Pezzo en forma di sonatina: Andante non troppo. — Allegro moderato"
    PERFORMER "Concertgebouworkest Amsterdam. Willem Mengelberg, conductor"
    REM DATE 1938
    INDEX 00 09:31:62
    FILE "05 - Serenade pour cordes - I. Pezzo en forma di sonatina.flac" WAVE
    INDEX 01 00:00:00
    TRACK 06 AUDIO
    TITLE "Sérénade pour cordes en ut majeur, Op. 48: II. Valse: Moderato. Tempo di Valse"
    PERFORMER "Concertgebouworkest Amsterdam. Willem Mengelberg, conductor"
    REM DATE 1938
    INDEX 00 08:56:35
    FILE "06 - Serenade pour cordes - II. Valse.flac" WAVE
    INDEX 01 00:00:00
    TRACK 07 AUDIO
    TITLE "Sérénade pour cordes en ut majeur, Op. 48: III. Elegia: Larghetto elegiaco"
    PERFORMER "Concertgebouworkest Amsterdam. Willem Mengelberg, conductor"
    REM DATE 1938
    INDEX 00 03:56:05
    FILE "07 - Serenade pour cordes - III. Elegia.flac" WAVE
    INDEX 01 00:00:00
    TRACK 08 AUDIO
    TITLE "Sérénade pour cordes en ut majeur, Op. 48: IV. Finale (Tema russo): Andante. — Allegro con spirito"
    PERFORMER "Concertgebouworkest Amsterdam. Willem Mengelberg, conductor"
    REM DATE 1938
    INDEX 00 07:24:08
    FILE "08 - Serenade pour cordes - IV. Finale (Tema russo).flac" WAVE
    INDEX 01 00:00:00
    -



  • Показать сообщения:    

    Текущее время: 05-Дек 03:30

    Часовой пояс: UTC + 3


    Вы не можете начинать темы
    Вы не можете отвечать на сообщения
    Вы не можете редактировать свои сообщения
    Вы не можете удалять свои сообщения
    Вы не можете голосовать в опросах
    Вы не можете прикреплять файлы к сообщениям
    Вы не можете скачивать файлы