(Classical) Franz Schubert - Der Wanderer: songs - Florian Boesch, Roger Vignoles - 2014, FLAC (image+.cue) lossless


 

[Цитировать]

Franz Schubert - Der Wanderer: songs - Florian Boesch, Roger Vignoles
Жанр: Classical
Страна-производитель диска: UK
Год издания диска: 2014
Издатель (лейбл): Hyperion
Номер по каталогу: CDA68010
Дата записи: 2012
Аудиокодек: FLAC
Тип рипа: image+.cue
Битрейт аудио: lossless
Продолжительность: 64:45
Источник: собственный рип
Наличие сканов в содержимом раздачи: да
Треклист:
Franz Schubert
[1] Der Wanderer, D 489
[2] Der Wanderer, D 649
[3] Der Wanderer an den Mond, D 870
[4] Aus 'Heliopolis' I, D 753
[5] Aus 'Heliopolis' II, D 754
[6] Auf der Donau, D 553
[7] Auf der Bruck, D 853
[8] Der Schiffer, D 536
[9] Das Heimweh, D 456
[10] Der Kreuzzug, D 932
[11] Abschied, D 475
[12] Wandrers Nachtlied I, D 224
[13] Wandrers Nachtlied II, D 768
[14] Herbst, D 945
[15] Meeres Stille, D 216
[16] Der Pilgrim, D 794
[17] Die Götter Griechenlands, D 677
[18] Im Walde 'Waldesnacht', D 708
[19] Lied 'Die Mutter Erde', D 788
Исполнители:
Florian Boesch baritone
Roger Vignoles piano

Лог создания рипа

Exact Audio Copy V1.0 beta 3 from 29. August 2011
EAC extraction logfile from 24. January 2015, 16:05
Florian Boesch, Roger Vignoles / Schubert - Der Wanderer & Other Songs
Used drive : HL-DT-STDVDRAM GU70N Adapter: 0 ID: 0
Read mode : Secure
Utilize accurate stream : Yes
Defeat audio cache : Yes
Make use of C2 pointers : No
Read offset correction : 48
Overread into Lead-In and Lead-Out : No
Fill up missing offset samples with silence : Yes
Delete leading and trailing silent blocks : No
Null samples used in CRC calculations : Yes
Used interface : Native Win32 interface for Win NT & 2000
Used output format : User Defined Encoder
Selected bitrate : 128 kBit/s
Quality : High
Add ID3 tag : No
Command line compressor : C:\Program Files (x86)\Exact Audio Copy\Flac\flac.exe
Additional command line options : -V -8 -T "Date=%year%" -T "Genre=%genre%" %source%
TOC of the extracted CD
Track | Start | Length | Start sector | End sector
---------------------------------------------------------
1 | 0:00.00 | 5:22.56 | 0 | 24205
2 | 5:22.56 | 2:23.67 | 24206 | 34997
3 | 7:46.48 | 2:24.64 | 34998 | 45861
4 | 10:11.37 | 3:08.49 | 45862 | 60010
5 | 13:20.11 | 2:14.57 | 60011 | 70117
6 | 15:34.68 | 2:55.54 | 70118 | 83296
7 | 18:30.47 | 3:31.55 | 83297 | 99176
8 | 22:02.27 | 2:02.70 | 99177 | 108396
9 | 24:05.22 | 2:55.18 | 108397 | 121539
10 | 27:00.40 | 2:45.07 | 121540 | 133921
11 | 29:45.47 | 5:07.01 | 133922 | 156947
12 | 34:52.48 | 1:43.30 | 156948 | 164702
13 | 36:36.03 | 2:02.31 | 164703 | 173883
14 | 38:38.34 | 3:45.48 | 173884 | 190806
15 | 42:24.07 | 2:23.23 | 190807 | 201554
16 | 44:47.30 | 4:37.46 | 201555 | 222375
17 | 49:25.01 | 4:24.16 | 222376 | 242191
18 | 53:49.17 | 6:53.27 | 242192 | 273193
19 | 60:42.44 | 4:02.48 | 273194 | 291391
Range status and errors
Selected range
Filename C:\temp\CDA68010 - Schubert - Der Wanderer (Boesch, Vignoles - HYPERION)\CD\Schubert - Der Wanderer & Other Songs.wav
Peak level 98.2 %
Extraction speed 5.1 X
Range quality 100.0 %
Test CRC FE88EA8F
Copy CRC FE88EA8F
Copy OK
No errors occurred
AccurateRip summary
Track 1 not present in database
Track 2 not present in database
Track 3 not present in database
Track 4 not present in database
Track 5 not present in database
Track 6 not present in database
Track 7 not present in database
Track 8 not present in database
Track 9 not present in database
Track 10 not present in database
Track 11 not present in database
Track 12 not present in database
Track 13 not present in database
Track 14 not present in database
Track 15 not present in database
Track 16 not present in database
Track 17 not present in database
Track 18 not present in database
Track 19 not present in database
None of the tracks are present in the AccurateRip database
End of status report
==== Log checksum CA9C521ACECD32AEDCFA65698409431F1AB155EE23E6D85FA25CC7F9FEE53EB9 ====



Показать сообщения:    

Текущее время: 08-Дек 17:25

Часовой пояс: UTC + 3


Вы не можете начинать темы
Вы не можете отвечать на сообщения
Вы не можете редактировать свои сообщения
Вы не можете удалять свои сообщения
Вы не можете голосовать в опросах
Вы не можете прикреплять файлы к сообщениям
Вы не можете скачивать файлы