(Opera) Franz Schreker - Die Gezeichneten / Франц Шрекер - Отмеченные (Lothar Zagrosek; Elizabeth Connell, Laszlo Polgar, Heinz Kruse, Monte Pederson, Christiane Berggold, Alfred Muff, Martin Petzold), 1993-1994 / 1995, FLAC (image+.cue), lossless


 

[Цитировать]

Franz Schreker - Die Gezeichneten / Франц Шрекер - Отмеченные (Lothar Zagrosek; Elizabeth Connell, László Polgár, Heinz Kruse, Monte Pederson, Christiane Berggold, Alfred Muff, Martin Petzold)

Жанр: Opera
Страна-производитель диска: Aнглия
Год издания диска: 1995
Издатель (лейбл): DECCA London
Дата записи: 1993/1994
Аудиокодек: FLAC
Тип рипа: image+.cue
Битрейт аудио: lossless
Продолжительность: 170:42
Источник: релизер Horacio (with heartfelt gratitudes for this rarely recording!)
Наличие сканов в содержимом раздачи: да
Исполнители:
Carlotta - Elizabeth Connell (Soprano),
Podesta - László Polgár (Bass),
Alviano - Heinz Kruse (Tenor),
Tamare - Monte Pederson (Baritone),
Martuccia - Christiane Berggold (Mezzo-Soprano),
Adorno - Alfred Muff (Bass-Baritone),
Pietro - Martin Petzold (Tenor).
Lothar Zagrosek, Conductor,
Deutsches Symphonie-Orchester Berlin,
Berlin Radio Symphony Chorus.
Recorded on August, 1993 & February, 1994, at Jesus Christ Church, Berlin, Germany.

Лог создания рипаЛог создания рипа CD 1

Exact Audio Copy V1.0 beta 3 from 29. August 2011
EAC extraction logfile from 29. March 2015, 13:42
Franz Schreker / Die Gezeichneten CD1
Used drive : TSSTcorpCDDVDW SE-208AB Adapter: 0 ID: 0
Read mode : Secure
Utilize accurate stream : Yes
Defeat audio cache : Yes
Make use of C2 pointers : No
Read offset correction : 6
Overread into Lead-In and Lead-Out : No
Fill up missing offset samples with silence : Yes
Delete leading and trailing silent blocks : No
Null samples used in CRC calculations : Yes
Used interface : Native Win32 interface for Win NT & 2000
Used output format : User Defined Encoder
Selected bitrate : 768 kBit/s
Quality : High
Add ID3 tag : No
Command line compressor : C:\Program Files (x86)\Exact Audio Copy\FLAC\FLAC.EXE
Additional command line options : -6 -V -T "ARTIST=%artist%" -T "TITLE=%title%" -T "ALBUM=%albumtitle%" -T "DATE=%year%" -T "TRACKNUMBER=%tracknr%" -T "GENRE=%genre%" -T "COMMENT=%comment%" -T "BAND=%albuminterpret%" -T "ALBUMARTIST=%albuminterpret%" -T "COMPOSER=%composer%" %haslyrics%--tag-from-file=LYRICS="%lyricsfile%"%haslyrics% -T "DISCNUMBER=%cdnumber%" -T "TOTALDISCS=%totalcds%" -T "TOTALTRACKS=%numtracks%" %hascover%--picture="%coverfile%"%hascover% %source% -o %dest%
TOC of the extracted CD
Track | Start | Length | Start sector | End sector
---------------------------------------------------------
1 | 0:00.32 | 10:05.38 | 32 | 45444
2 | 10:05.70 | 4:58.50 | 45445 | 67844
3 | 15:04.45 | 6:23.50 | 67845 | 96619
4 | 21:28.20 | 2:58.45 | 96620 | 110014
5 | 24:26.65 | 4:18.05 | 110015 | 129369
6 | 28:44.70 | 5:10.42 | 129370 | 152661
7 | 33:55.37 | 3:43.70 | 152662 | 169456
8 | 37:39.32 | 12:40.38 | 169457 | 226494
Range status and errors
Selected range
Filename C:\EAC RIPS\Franz Schreker - Die Gezeichneten CD1.wav
Peak level 100.0 %
Extraction speed 1.7 X
Range quality 100.0 %
Test CRC AF425D8A
Copy CRC AF425D8A
Copy OK
No errors occurred
AccurateRip summary
Track 1 accurately ripped (confidence 2) [8551E304] (AR v1)
Track 2 accurately ripped (confidence 1) [DF82EC20] (AR v2)
Track 3 accurately ripped (confidence 1) [C09A2243] (AR v2)
Track 4 accurately ripped (confidence 1) [69E110C4] (AR v2)
Track 5 accurately ripped (confidence 1) [920EEF8D] (AR v2)
Track 6 accurately ripped (confidence 1) [A4165AF2] (AR v2)
Track 7 accurately ripped (confidence 1) [8EEB4252] (AR v2)
Track 8 accurately ripped (confidence 1) [7C4B912A] (AR v2)
All tracks accurately ripped
End of status report
---- CUETools DB Plugin V2.1.3
[CTDB TOCID: 3xPpCYGbfOH.bVr5LFFUicFKpBM-] found, Submit result: discs with pregaps not supported in this protocol version
[4100abc4] (1/1) No match
==== Log checksum A7E4798DD2EA9DB32BA6ADACDEAF33208BE90EC86E79802C82F126D1DCC0FF76 ====
------------------------------------------------------------
Exact Audio Copy V1.0 beta 3 from 29. August 2011
EAC extraction logfile from 29. March 2015, 13:42
Franz Schreker / Die Gezeichneten CD1
Used drive : TSSTcorpCDDVDW SE-208AB Adapter: 0 ID: 0
Read mode : Secure
Utilize accurate stream : Yes
Defeat audio cache : Yes
Make use of C2 pointers : No
Read offset correction : 6
Overread into Lead-In and Lead-Out : No
Fill up missing offset samples with silence : Yes
Delete leading and trailing silent blocks : No
Null samples used in CRC calculations : Yes
Used interface : Native Win32 interface for Win NT & 2000
Used output format : User Defined Encoder
Selected bitrate : 768 kBit/s
Quality : High
Add ID3 tag : No
Command line compressor : C:\Program Files (x86)\Exact Audio Copy\FLAC\FLAC.EXE
Additional command line options : -6 -V -T "ARTIST=%artist%" -T "TITLE=%title%" -T "ALBUM=%albumtitle%" -T "DATE=%year%" -T "TRACKNUMBER=%tracknr%" -T "GENRE=%genre%" -T "COMMENT=%comment%" -T "BAND=%albuminterpret%" -T "ALBUMARTIST=%albuminterpret%" -T "COMPOSER=%composer%" %haslyrics%--tag-from-file=LYRICS="%lyricsfile%"%haslyrics% -T "DISCNUMBER=%cdnumber%" -T "TOTALDISCS=%totalcds%" -T "TOTALTRACKS=%numtracks%" %hascover%--picture="%coverfile%"%hascover% %source% -o %dest%
TOC of the extracted CD
Track | Start | Length | Start sector | End sector
---------------------------------------------------------
1 | 0:00.32 | 10:05.38 | 32 | 45444
2 | 10:05.70 | 4:58.50 | 45445 | 67844
3 | 15:04.45 | 6:23.50 | 67845 | 96619
4 | 21:28.20 | 2:58.45 | 96620 | 110014
5 | 24:26.65 | 4:18.05 | 110015 | 129369
6 | 28:44.70 | 5:10.42 | 129370 | 152661
7 | 33:55.37 | 3:43.70 | 152662 | 169456
8 | 37:39.32 | 12:40.38 | 169457 | 226494
Range status and errors
Selected range
Filename C:\EAC RIPS\Franz Schreker - Die Gezeichneten CD1.wav
Peak level 100.0 %
Extraction speed 1.7 X
Range quality 100.0 %
Test CRC AF425D8A
Copy CRC AF425D8A
Copy OK
No errors occurred
AccurateRip summary
Track 1 accurately ripped (confidence 2) [8551E304] (AR v1)
Track 2 accurately ripped (confidence 1) [DF82EC20] (AR v2)
Track 3 accurately ripped (confidence 1) [C09A2243] (AR v2)
Track 4 accurately ripped (confidence 1) [69E110C4] (AR v2)
Track 5 accurately ripped (confidence 1) [920EEF8D] (AR v2)
Track 6 accurately ripped (confidence 1) [A4165AF2] (AR v2)
Track 7 accurately ripped (confidence 1) [8EEB4252] (AR v2)
Track 8 accurately ripped (confidence 1) [7C4B912A] (AR v2)
All tracks accurately ripped
End of status report
---- CUETools DB Plugin V2.1.3
[CTDB TOCID: 3xPpCYGbfOH.bVr5LFFUicFKpBM-] found, Submit result: discs with pregaps not supported in this protocol version
[4100abc4] (1/1) No match
==== Log checksum A7E4798DD2EA9DB32BA6ADACDEAF33208BE90EC86E79802C82F126D1DCC0FF76 ====

Лог создания рипа CD 2

Exact Audio Copy V1.0 beta 3 from 29. August 2011
EAC extraction logfile from 29. March 2015, 16:21
Franz Schreker / Die Gezeichneten CD2
Used drive : TSSTcorpCDDVDW SE-208AB Adapter: 0 ID: 0
Read mode : Secure
Utilize accurate stream : Yes
Defeat audio cache : Yes
Make use of C2 pointers : No
Read offset correction : 6
Overread into Lead-In and Lead-Out : No
Fill up missing offset samples with silence : Yes
Delete leading and trailing silent blocks : No
Null samples used in CRC calculations : Yes
Used interface : Native Win32 interface for Win NT & 2000
Used output format : User Defined Encoder
Selected bitrate : 768 kBit/s
Quality : High
Add ID3 tag : No
Command line compressor : C:\Program Files (x86)\Exact Audio Copy\FLAC\FLAC.EXE
Additional command line options : -6 -V -T "ARTIST=%artist%" -T "TITLE=%title%" -T "ALBUM=%albumtitle%" -T "DATE=%year%" -T "TRACKNUMBER=%tracknr%" -T "GENRE=%genre%" -T "COMMENT=%comment%" -T "BAND=%albuminterpret%" -T "ALBUMARTIST=%albuminterpret%" -T "COMPOSER=%composer%" %haslyrics%--tag-from-file=LYRICS="%lyricsfile%"%haslyrics% -T "DISCNUMBER=%cdnumber%" -T "TOTALDISCS=%totalcds%" -T "TOTALTRACKS=%numtracks%" %hascover%--picture="%coverfile%"%hascover% %source% -o %dest%
TOC of the extracted CD
Track | Start | Length | Start sector | End sector
---------------------------------------------------------
1 | 0:00.00 | 3:13.02 | 0 | 14476
2 | 3:13.02 | 6:19.03 | 14477 | 42904
3 | 9:32.05 | 6:43.27 | 42905 | 73156
4 | 16:15.32 | 6:26.28 | 73157 | 102134
5 | 22:41.60 | 8:51.57 | 102135 | 142016
6 | 31:33.42 | 4:02.28 | 142017 | 160194
7 | 35:35.70 | 4:35.60 | 160195 | 180879
8 | 40:11.55 | 3:53.02 | 180880 | 198356
9 | 44:04.57 | 3:51.23 | 198357 | 215704
Range status and errors
Selected range
Filename C:\EAC RIPS\Franz Schreker - Die Gezeichneten CD2.wav
Peak level 100.0 %
Extraction speed 1.7 X
Range quality 100.0 %
Test CRC 46D47C00
Copy CRC 46D47C00
Copy OK
No errors occurred
AccurateRip summary
Track 1 cannot be verified as accurate (confidence 5) [A66D2209], AccurateRip returned [A9F15544] (AR v2)
Track 2 cannot be verified as accurate (confidence 5) [8313A10A], AccurateRip returned [CF110901] (AR v2)
Track 3 cannot be verified as accurate (confidence 5) [8FACD68D], AccurateRip returned [789C270F] (AR v2)
Track 4 cannot be verified as accurate (confidence 5) [A178599D], AccurateRip returned [25E66AEE] (AR v2)
Track 5 cannot be verified as accurate (confidence 5) [FD3815E3], AccurateRip returned [C3ABBCEF] (AR v2)
Track 6 cannot be verified as accurate (confidence 5) [ABBA0458], AccurateRip returned [C05E682E] (AR v2)
Track 7 cannot be verified as accurate (confidence 5) [C8562C56], AccurateRip returned [4089FC61] (AR v2)
Track 8 cannot be verified as accurate (confidence 5) [803C2489], AccurateRip returned [ED2DE29B] (AR v2)
Track 9 cannot be verified as accurate (confidence 5) [9EEE878F], AccurateRip returned [CF952813] (AR v2)
No tracks could be verified as accurate
You may have a different pressing from the one(s) in the database
End of status report
---- CUETools DB Plugin V2.1.3
[CTDB TOCID: cnt2sb99s6zpNBkYb8aniZCo.1I-] found, Submit result: cnt2sb99s6zpNBkYb8aniZCo.1I- has been submitted
[55241cd2] (4/4) No match
==== Log checksum F28ED68B6B90320115F822E2C495655A090A896638877160F921C0E8F39E67EA ====
------------------------------------------------------------
Exact Audio Copy V1.0 beta 3 from 29. August 2011
EAC extraction logfile from 29. March 2015, 16:21
Franz Schreker / Die Gezeichneten CD2
Used drive : TSSTcorpCDDVDW SE-208AB Adapter: 0 ID: 0
Read mode : Secure
Utilize accurate stream : Yes
Defeat audio cache : Yes
Make use of C2 pointers : No
Read offset correction : 6
Overread into Lead-In and Lead-Out : No
Fill up missing offset samples with silence : Yes
Delete leading and trailing silent blocks : No
Null samples used in CRC calculations : Yes
Used interface : Native Win32 interface for Win NT & 2000
Used output format : User Defined Encoder
Selected bitrate : 768 kBit/s
Quality : High
Add ID3 tag : No
Command line compressor : C:\Program Files (x86)\Exact Audio Copy\FLAC\FLAC.EXE
Additional command line options : -6 -V -T "ARTIST=%artist%" -T "TITLE=%title%" -T "ALBUM=%albumtitle%" -T "DATE=%year%" -T "TRACKNUMBER=%tracknr%" -T "GENRE=%genre%" -T "COMMENT=%comment%" -T "BAND=%albuminterpret%" -T "ALBUMARTIST=%albuminterpret%" -T "COMPOSER=%composer%" %haslyrics%--tag-from-file=LYRICS="%lyricsfile%"%haslyrics% -T "DISCNUMBER=%cdnumber%" -T "TOTALDISCS=%totalcds%" -T "TOTALTRACKS=%numtracks%" %hascover%--picture="%coverfile%"%hascover% %source% -o %dest%
TOC of the extracted CD
Track | Start | Length | Start sector | End sector
---------------------------------------------------------
1 | 0:00.00 | 3:13.02 | 0 | 14476
2 | 3:13.02 | 6:19.03 | 14477 | 42904
3 | 9:32.05 | 6:43.27 | 42905 | 73156
4 | 16:15.32 | 6:26.28 | 73157 | 102134
5 | 22:41.60 | 8:51.57 | 102135 | 142016
6 | 31:33.42 | 4:02.28 | 142017 | 160194
7 | 35:35.70 | 4:35.60 | 160195 | 180879
8 | 40:11.55 | 3:53.02 | 180880 | 198356
9 | 44:04.57 | 3:51.23 | 198357 | 215704
Range status and errors
Selected range
Filename C:\EAC RIPS\Franz Schreker - Die Gezeichneten CD2.wav
Peak level 100.0 %
Extraction speed 1.7 X
Range quality 100.0 %
Test CRC 46D47C00
Copy CRC 46D47C00
Copy OK
No errors occurred
AccurateRip summary
Track 1 cannot be verified as accurate (confidence 5) [A66D2209], AccurateRip returned [A9F15544] (AR v2)
Track 2 cannot be verified as accurate (confidence 5) [8313A10A], AccurateRip returned [CF110901] (AR v2)
Track 3 cannot be verified as accurate (confidence 5) [8FACD68D], AccurateRip returned [789C270F] (AR v2)
Track 4 cannot be verified as accurate (confidence 5) [A178599D], AccurateRip returned [25E66AEE] (AR v2)
Track 5 cannot be verified as accurate (confidence 5) [FD3815E3], AccurateRip returned [C3ABBCEF] (AR v2)
Track 6 cannot be verified as accurate (confidence 5) [ABBA0458], AccurateRip returned [C05E682E] (AR v2)
Track 7 cannot be verified as accurate (confidence 5) [C8562C56], AccurateRip returned [4089FC61] (AR v2)
Track 8 cannot be verified as accurate (confidence 5) [803C2489], AccurateRip returned [ED2DE29B] (AR v2)
Track 9 cannot be verified as accurate (confidence 5) [9EEE878F], AccurateRip returned [CF952813] (AR v2)
No tracks could be verified as accurate
You may have a different pressing from the one(s) in the database
End of status report
---- CUETools DB Plugin V2.1.3
[CTDB TOCID: cnt2sb99s6zpNBkYb8aniZCo.1I-] found, Submit result: cnt2sb99s6zpNBkYb8aniZCo.1I- has been submitted
[55241cd2] (4/4) No match
==== Log checksum F28ED68B6B90320115F822E2C495655A090A896638877160F921C0E8F39E67EA ====

Лог создания рипа CD 3

Exact Audio Copy V1.0 beta 3 from 29. August 2011
EAC extraction logfile from 30. March 2015, 10:23
Franz Schreker / Die Gezeichneten (1995 Zagrosek) - CD3
Used drive : TSSTcorpCDDVDW SE-208AB Adapter: 0 ID: 0
Read mode : Secure
Utilize accurate stream : Yes
Defeat audio cache : Yes
Make use of C2 pointers : No
Read offset correction : 6
Overread into Lead-In and Lead-Out : No
Fill up missing offset samples with silence : Yes
Delete leading and trailing silent blocks : No
Null samples used in CRC calculations : Yes
Used interface : Native Win32 interface for Win NT & 2000
Used output format : User Defined Encoder
Selected bitrate : 768 kBit/s
Quality : High
Add ID3 tag : No
Command line compressor : C:\Program Files (x86)\Exact Audio Copy\FLAC\FLAC.EXE
Additional command line options : -6 -V -T "ARTIST=%artist%" -T "TITLE=%title%" -T "ALBUM=%albumtitle%" -T "DATE=%year%" -T "TRACKNUMBER=%tracknr%" -T "GENRE=%genre%" -T "COMMENT=%comment%" -T "BAND=%albuminterpret%" -T "ALBUMARTIST=%albuminterpret%" -T "COMPOSER=%composer%" %haslyrics%--tag-from-file=LYRICS="%lyricsfile%"%haslyrics% -T "DISCNUMBER=%cdnumber%" -T "TOTALDISCS=%totalcds%" -T "TOTALTRACKS=%numtracks%" %hascover%--picture="%coverfile%"%hascover% %source% -o %dest%
TOC of the extracted CD
Track | Start | Length | Start sector | End sector
---------------------------------------------------------
1 | 0:00.32 | 5:26.28 | 32 | 24509
2 | 5:26.60 | 4:17.60 | 24510 | 43844
3 | 9:44.45 | 2:14.35 | 43845 | 53929
4 | 11:59.05 | 6:11.07 | 53930 | 81761
5 | 18:10.12 | 3:51.13 | 81762 | 99099
6 | 22:01.25 | 4:43.57 | 99100 | 120381
7 | 26:45.07 | 3:37.63 | 120382 | 136719
8 | 30:22.70 | 2:02.32 | 136720 | 145901
9 | 32:25.27 | 6:01.25 | 145902 | 173001
10 | 38:26.52 | 3:20.10 | 173002 | 188011
11 | 41:46.62 | 4:59.13 | 188012 | 210449
12 | 46:46.00 | 2:40.62 | 210450 | 222511
13 | 49:26.62 | 5:34.30 | 222512 | 247591
14 | 55:01.17 | 6:10.53 | 247592 | 275394
15 | 61:11.70 | 5:41.62 | 275395 | 301031
16 | 66:53.57 | 5:32.18 | 301032 | 325949
Range status and errors
Selected range
Filename C:\EAC RIPS\Franz Schreker - Die Gezeichneten - CD3.wav
Peak level 100.0 %
Extraction speed 2.1 X
Range quality 100.0 %
Test CRC 8A4ACF14
Copy CRC 8A4ACF14
Copy OK
No errors occurred
AccurateRip summary
Track 1 accurately ripped (confidence 2) [A14061E6] (AR v1)
Track 2 accurately ripped (confidence 2) [0FBF132E] (AR v1)
Track 3 accurately ripped (confidence 2) [0BAC622D] (AR v1)
Track 4 accurately ripped (confidence 2) [19F23A8A] (AR v1)
Track 5 accurately ripped (confidence 2) [ADDA3322] (AR v1)
Track 6 accurately ripped (confidence 2) [D556ED98] (AR v1)
Track 7 accurately ripped (confidence 2) [E4E6A72B] (AR v1)
Track 8 accurately ripped (confidence 2) [1FBACE14] (AR v1)
Track 9 accurately ripped (confidence 2) [F06071F1] (AR v1)
Track 10 accurately ripped (confidence 2) [7C602AC6] (AR v1)
Track 11 accurately ripped (confidence 2) [4005A04E] (AR v1)
Track 12 accurately ripped (confidence 2) [8AA62A02] (AR v1)
Track 13 accurately ripped (confidence 2) [C063C538] (AR v1)
Track 14 accurately ripped (confidence 2) [5DE9F721] (AR v1)
Track 15 accurately ripped (confidence 2) [9680F669] (AR v1)
Track 16 accurately ripped (confidence 2) [D267BAAC] (AR v1)
All tracks accurately ripped
End of status report
---- CUETools DB Plugin V2.1.3
[CTDB TOCID: a7jHJbreTOytpFakcfzJDBP.fXo-] disk not present in database, Submit result: discs with pregaps not supported in this protocol version
==== Log checksum 56E87B1AAD89F3639CEFE3F53DF423CCA5CC430BBDF93FFA7233EE6434E57785 ====
------------------------------------------------------------
Exact Audio Copy V1.0 beta 3 from 29. August 2011
EAC extraction logfile from 30. March 2015, 10:23
Franz Schreker / Die Gezeichneten (1995 Zagrosek) - CD3
Used drive : TSSTcorpCDDVDW SE-208AB Adapter: 0 ID: 0
Read mode : Secure
Utilize accurate stream : Yes
Defeat audio cache : Yes
Make use of C2 pointers : No
Read offset correction : 6
Overread into Lead-In and Lead-Out : No
Fill up missing offset samples with silence : Yes
Delete leading and trailing silent blocks : No
Null samples used in CRC calculations : Yes
Used interface : Native Win32 interface for Win NT & 2000
Used output format : User Defined Encoder
Selected bitrate : 768 kBit/s
Quality : High
Add ID3 tag : No
Command line compressor : C:\Program Files (x86)\Exact Audio Copy\FLAC\FLAC.EXE
Additional command line options : -6 -V -T "ARTIST=%artist%" -T "TITLE=%title%" -T "ALBUM=%albumtitle%" -T "DATE=%year%" -T "TRACKNUMBER=%tracknr%" -T "GENRE=%genre%" -T "COMMENT=%comment%" -T "BAND=%albuminterpret%" -T "ALBUMARTIST=%albuminterpret%" -T "COMPOSER=%composer%" %haslyrics%--tag-from-file=LYRICS="%lyricsfile%"%haslyrics% -T "DISCNUMBER=%cdnumber%" -T "TOTALDISCS=%totalcds%" -T "TOTALTRACKS=%numtracks%" %hascover%--picture="%coverfile%"%hascover% %source% -o %dest%
TOC of the extracted CD
Track | Start | Length | Start sector | End sector
---------------------------------------------------------
1 | 0:00.32 | 5:26.28 | 32 | 24509
2 | 5:26.60 | 4:17.60 | 24510 | 43844
3 | 9:44.45 | 2:14.35 | 43845 | 53929
4 | 11:59.05 | 6:11.07 | 53930 | 81761
5 | 18:10.12 | 3:51.13 | 81762 | 99099
6 | 22:01.25 | 4:43.57 | 99100 | 120381
7 | 26:45.07 | 3:37.63 | 120382 | 136719
8 | 30:22.70 | 2:02.32 | 136720 | 145901
9 | 32:25.27 | 6:01.25 | 145902 | 173001
10 | 38:26.52 | 3:20.10 | 173002 | 188011
11 | 41:46.62 | 4:59.13 | 188012 | 210449
12 | 46:46.00 | 2:40.62 | 210450 | 222511
13 | 49:26.62 | 5:34.30 | 222512 | 247591
14 | 55:01.17 | 6:10.53 | 247592 | 275394
15 | 61:11.70 | 5:41.62 | 275395 | 301031
16 | 66:53.57 | 5:32.18 | 301032 | 325949
Range status and errors
Selected range
Filename C:\EAC RIPS\Franz Schreker - Die Gezeichneten - CD3.wav
Peak level 100.0 %
Extraction speed 2.1 X
Range quality 100.0 %
Test CRC 8A4ACF14
Copy CRC 8A4ACF14
Copy OK
No errors occurred
AccurateRip summary
Track 1 accurately ripped (confidence 2) [A14061E6] (AR v1)
Track 2 accurately ripped (confidence 2) [0FBF132E] (AR v1)
Track 3 accurately ripped (confidence 2) [0BAC622D] (AR v1)
Track 4 accurately ripped (confidence 2) [19F23A8A] (AR v1)
Track 5 accurately ripped (confidence 2) [ADDA3322] (AR v1)
Track 6 accurately ripped (confidence 2) [D556ED98] (AR v1)
Track 7 accurately ripped (confidence 2) [E4E6A72B] (AR v1)
Track 8 accurately ripped (confidence 2) [1FBACE14] (AR v1)
Track 9 accurately ripped (confidence 2) [F06071F1] (AR v1)
Track 10 accurately ripped (confidence 2) [7C602AC6] (AR v1)
Track 11 accurately ripped (confidence 2) [4005A04E] (AR v1)
Track 12 accurately ripped (confidence 2) [8AA62A02] (AR v1)
Track 13 accurately ripped (confidence 2) [C063C538] (AR v1)
Track 14 accurately ripped (confidence 2) [5DE9F721] (AR v1)
Track 15 accurately ripped (confidence 2) [9680F669] (AR v1)
Track 16 accurately ripped (confidence 2) [D267BAAC] (AR v1)
All tracks accurately ripped
End of status report
---- CUETools DB Plugin V2.1.3
[CTDB TOCID: a7jHJbreTOytpFakcfzJDBP.fXo-] disk not present in database, Submit result: discs with pregaps not supported in this protocol version
==== Log checksum 56E87B1AAD89F3639CEFE3F53DF423CCA5CC430BBDF93FFA7233EE6434E57785 ====

Содержание индексной карты (.CUE)Содержание индексной карты (.CUE) CD 1

REM GENRE Opera
REM DATE 1995
REM DISCID 640BCB08
REM COMMENT "ExactAudioCopy v1.0b3"
CATALOG 0028944444322
PERFORMER "Franz Schreker"
TITLE "Die Gezeichneten CD1"
FILE "Franz Schreker - Die Gezeichneten CD1.flac" WAVE
TRACK 01 AUDIO
TITLE "Vorspiel"
PERFORMER "Franz Schreker"
ISRC GBF079440801
INDEX 00 00:00:00
INDEX 01 00:00:32
TRACK 02 AUDIO
TITLE "Act 1- Last! Genung! Ich will nichts mehr hцren!"
PERFORMER "Franz Schreker"
ISRC GBF079440802
INDEX 00 10:02:50
INDEX 01 10:05:70
TRACK 03 AUDIO
TITLE "Act 1- Ganz recht, ganz recht! Es ist ьberzeugend"
PERFORMER "Franz Schreker"
ISRC GBF079440803
INDEX 01 15:04:45
TRACK 04 AUDIO
TITLE "Act 1- Est gilt zu handeln"
PERFORMER "Franz Schreker"
ISRC GBF079440804
INDEX 01 21:28:20
TRACK 05 AUDIO
TITLE "Act 1- Mein Grus, Signori"
PERFORMER "Franz Schreker"
ISRC GBF079440805
INDEX 01 24:26:65
TRACK 06 AUDIO
TITLE "Act 1- Ah, bei der Madonna. bald hдtt' ich's vergessen!"
PERFORMER "Franz Schreker"
ISRC GBF079440806
INDEX 01 28:44:70
TRACK 07 AUDIO
TITLE "Act 1-Holde Martuccia! - Du Lump!"
PERFORMER "Franz Schreker"
ISRC GBF079440807
INDEX 01 33:55:37
TRACK 08 AUDIO
TITLE "Act 1- Ihr seid kцstich, Signor Alviano"
PERFORMER "Franz Schreker"
ISRC GBF079440808
INDEX 01 37:39:32

Содержание индексной карты (.CUE) CD 2

REM GENRE Opera
REM DATE 1995
REM DISCID 840B3D09
REM COMMENT "ExactAudioCopy v1.0b3"
CATALOG 0028944444421
PERFORMER "Franz Schreker"
TITLE "Die Gezeichneten CD2"
FILE "Franz Schreker - Die Gezeichneten CD2.flac" WAVE
TRACK 01 AUDIO
TITLE "Act 2-Er spielt mit uns, wie die Katz' mit der Maus"
PERFORMER "Franz Schreker"
ISRC GBF079440809
INDEX 01 00:00:00
TRACK 02 AUDIO
TITLE "Act 2-Hast du's gehцrt? Dies ist die Stimmung"
PERFORMER "Franz Schreker"
ISRC GBF079440809
INDEX 01 03:13:02
TRACK 03 AUDIO
TITLE "Act 2-Ah! Ein Groser Mahler nannte mir einmal ihren Namen"
PERFORMER "Franz Schreker"
ISRC GBF079440811
INDEX 01 09:32:05
TRACK 04 AUDIO
TITLE "Act 2-Und weis Salvago von eurem Treiben?"
PERFORMER "Franz Schreker"
ISRC GBF079440812
INDEX 01 16:15:32
TRACK 05 AUDIO
TITLE "Act 2-Uns're Zeit ist voll seltsamer Dinge"
PERFORMER "Franz Schreker"
ISRC GBF079440813
INDEX 01 22:41:60
TRACK 06 AUDIO
TITLE "Act 2- Doch Signor euch zu malen ist wahrlich kein kinderspiel"
PERFORMER "Franz Schreker"
ISRC GBF079440814
INDEX 01 31:33:42
TRACK 07 AUDIO
TITLE "Act 2-Und wenn's mehr wдre"
PERFORMER "Franz Schreker"
ISRC GBF079440815
INDEX 01 35:35:70
TRACK 08 AUDIO
TITLE "Act 2-Ich bitt' euch, sprecht nicht und blickt mich nur an"
PERFORMER "Franz Schreker"
ISRC GBF079440815
INDEX 01 40:11:55
TRACK 09 AUDIO
TITLE "Act 2-Du Sьse, du Arme, du Schцnste!"
PERFORMER "Franz Schreker"
ISRC GBF079440817
INDEX 01 44:04:57

Содержание индексной карты (.CUE) CD 3

REM GENRE Opera
REM DATE 1995
REM DISCID E010FA10
REM COMMENT "ExactAudioCopy v1.0b3"
CATALOG 0028944444520
PERFORMER "Franz Schreker"
TITLE "Die Gezeichneten (1995 Zagrosek) - CD3"
FILE "Franz Schreker - Die Gezeichneten - CD3.flac" WAVE
TRACK 01 AUDIO
TITLE "Akt 3 - Vorspiel"
PERFORMER "Franz Schreker"
ISRC GBF079440818
INDEX 00 00:00:00
INDEX 01 00:00:32
TRACK 02 AUDIO
TITLE "Akt 3 - Bei den Gebeinen des heil'gen Andreas"
PERFORMER "Franz Schreker"
ISRC GBF079440819
INDEX 01 05:26:60
TRACK 03 AUDIO
TITLE "Akt 3 - Ich bitt' euch, Leute, habt ihr nicht gesehen"
PERFORMER "Franz Schreker"
ISRC GBF079440820
INDEX 01 09:44:45
TRACK 04 AUDIO
TITLE "Akt 3 - War mir doch, als hцrt' ich Martuccias Stimme"
PERFORMER "Franz Schreker"
ISRC GBF079440821
INDEX 01 11:59:05
TRACK 05 AUDIO
TITLE "Akt 3 - Doch wo bleibt Carlotta?"
PERFORMER "Franz Schreker"
ISRC GBF079440822
INDEX 01 18:10:12
TRACK 06 AUDIO
TITLE "Akt 3 - Ihr habt euch getrцstet, Ritter Menaldo"
PERFORMER "Franz Schreker"
ISRC GBF079440823
INDEX 01 22:01:25
TRACK 07 AUDIO
TITLE "Akt 3 - Ah, welche Nacht"
PERFORMER "Franz Schreker"
ISRC GBF079440824
INDEX 01 26:45:07
TRACK 08 AUDIO
TITLE "Akt 3 - Bleibt, Schцnste"
PERFORMER "Franz Schreker"
ISRC GBF079440825
INDEX 01 30:22:70
TRACK 09 AUDIO
TITLE "Akt 3 - Interlude - Was fliehst du vor mir?"
PERFORMER "Franz Schreker"
ISRC GBF079440826
INDEX 01 32:25:27
TRACK 10 AUDIO
TITLE "Akt 3 - Ihre Stimme hцr' ich"
PERFORMER "Franz Schreker"
ISRC GBF079440827
INDEX 01 38:26:52
TRACK 11 AUDIO
TITLE "Akt 3 - Halt ein, genuesisches Volk"
PERFORMER "Franz Schreker"
ISRC GBF079440828
INDEX 01 41:46:62
TRACK 12 AUDIO
TITLE "Akt 3 - Bringt jene Frau!"
PERFORMER "Franz Schreker"
ISRC GBF079440829
INDEX 01 46:46:00
TRACK 13 AUDIO
TITLE "Akt 3 - Wer sprach den Namen?"
PERFORMER "Franz Schreker"
ISRC GBF079440830
INDEX 01 49:26:62
TRACK 14 AUDIO
TITLE "Akt 3 - Du lьgst - Du irrst, ich spreche die Wahrheit"
PERFORMER "Franz Schreker"
ISRC GBF079440831
INDEX 01 55:01:17
TRACK 15 AUDIO
TITLE "Akt 3 - Weil, weil, o, du Teufel"
PERFORMER "Franz Schreker"
ISRC GBF079440832
INDEX 01 61:11:70
TRACK 16 AUDIO
TITLE "Akt 3 - Wer schrie da? War das nicht mein Liebster?"
PERFORMER "Franz Schreker"
ISRC GBF079440833
INDEX 01 66:53:57

Треклист

Disc 1
1. Prelude
Act I:
2. "Laßt! Genug! Ich will nichts mehr hören!"
3. "Ganz recht, ganz recht! Es ist überzeugend"
4. "Es gilt zu handeln"
5. "Meinen Gruß, Signori"
6. "Ah, bei der Madonna, bald hätt' ich's vergessen!"
7. "Holde Martuccia! - Du Lump!"
8. "Ihr seid köstlich, Signor Alviano"
Disc 2
Act II:
1. "Es spielt mit uns, wie die Katz' mit der Maus"
2. "Hast du's gehört? Dies ist die Stimmung"
3. "Ah! Ein großer Maler nannte mir einmal ihren Namen"
4. "Und weiß Salvago von eurem Treiben?"
5. "Uns're Zeit ist voll seltsamer Dinge"
6. "Doch Signor, euch zu malen ist wahrlich kein Kinderspiel"
7. "Und wenn's mehr wäre"
8. "Ich bitt' euch, sprecht nicht und blickt mich nur an"
9. "Du Süße, du Arme, du Schönste!"
Disc 3
Act III:
1. Prelude
2. "Bei den Gebeinen des heil'gen Andreas!"
3. "Ich bitt' euch, Leute, habt ihr nicht gesehen meinen Herrn Alviano?"
4. "War mir doch, als hört' ich Martuccias Stimme!"
5. "Doch wo bleibt Carlotta?"
6. "Ihr habt euch getröstet, Ritter Menaldo"
7. "Ah, welche Nacht!"
8. "Bleibt, Schönste!"
9. Interlude: "Was fliehst du vor mir?"
10. "Ihre Stimme hör' ich!"
11. "Halt ein, genuesisches Volk!"
12. "Bringt jene Frau!"
13. "Wer sprach den Namen?"
14. "Du lügst! - Du irrst, ich spreche die Wahrheit"
15. "Weil, weil, o, du Teufel"
16. "Wer schrie da? War das nicht mein Liebster?"



Показать сообщения:    

Текущее время: 04-Дек 09:04

Часовой пояс: UTC + 3


Вы не можете начинать темы
Вы не можете отвечать на сообщения
Вы не можете редактировать свои сообщения
Вы не можете удалять свои сообщения
Вы не можете голосовать в опросах
Вы не можете прикреплять файлы к сообщениям
Вы не можете скачивать файлы