[TR24][OF] Brahms: The Hungarian Connection - Andreas Ottensamer plays Johannes Brahms & Leo Weiner (feat. Leonidas Kavakos, Antoine Tamestit, Christoph & Stephan Koncz etc.) - 2015 (Classical)


Статистика раздачи [Обновить пиров]
Размер:  1.09 GB   |    Зарегистрирован:  8 месяцев 18 дней   |    Скачан:  0 раз

Полного источника не было: Никогда

 
   
 
 
 

[Цитировать]

Brahms: The Hungarian Connection
Andreas Ottensamer
-Год издания: 2015 | Жанр: Classical
Издатель: DG | Продолжительность: 01:01:48
Наличие сканов: Sleeve, Digital Booklet- -Andreas Ottensamer (clarinet), Leonidas Kavakos (violin), Antoine Tamestit (viola)
Christoph and Stephan Koncz (violin, cello), Ödon Rácz (double bass)
Predrag Tomic (accordion), Oskar Ökrös (cimbalom)
Recorded October 2014 at Nikodemus-Kirche in Berlin, Germany-Контейнер: FLAC (*.flac) | Тип рипа: tracks
Разрядность: 24bit / 96kHz | Количество каналов: 2.0
-Треклист
Johannes Brahms (1833-1897)
Clarinet Quintet in B minor, Op.115
01.1. Allegro (13:02)
02. 2. Adagio (11:43)
03. 3. Andantino - Presto non assai, ma con sentimento (4:52)
04. 4. Con moto (10:19)
Two Waltzes in A Major, Op.39, No.15 & Op.52, No.6
05. Two Waltzes in A Major (2:53)
Hungarian Dances, WoO 1
06. No. 7 in F major (2:13)
07. No. 1 in G minor (Isteni Csárdás) (5:30)
Leo Weiner (1885-1960)
Két Tétel
08. Búsuló juhász (Woeful Shepherd) (2:27)
09. Csűrdöngölő (Barndance) (2:03)
Traditional
10. Dances From Transylvania (6:47)

О релизе


The album includes Brahms’ Clarinet Quintet, one of the most seminal works for the instrument – combined with Hungarian dances and waltzes by Brahms, all newly arranged to include additional material from Brahms' original musical sources, with an authentic folk twist.
Brahms is seen as one of the most serious composers of the German school – this bold venture reveals how closely connected his music actually is to the vibrant folk music inspired Hungarian music world. Andreas Ottensamer, himself half-Hungarian, naturally recognizes Brahms’ Clarinet Quintet as “genuinely one of the monuments of the entire clarinet repertoire, a piece that every clarinettist dreams of playing”.

ОтчётыДинамический диапазон

foobar2000 1.3.8 / Dynamic Range Meter 1.1.1
log date: 2015-06-23 19:35:13
--------------------------------------------------------------------------------
Analyzed: Andreas Ottensamer, Leonidas Kavakos, Christoph Koncz, Antoine Tamestit, Stephan Koncz / Brahms: The Hungarian Connection (1-4)
Andreas Ottensamer, Leonidas Kavakos, Christoph Koncz, Antoine Tamestit, Stephan Koncz, Ödon Rácz / Brahms: The Hungarian Connection (5)
Andreas Ottensamer, Leonidas Kavakos, Christoph Koncz, Antoine Tamestit, Stephan Koncz, Ödon Rácz, Oskar Ökrös / Brahms: The Hungarian Connection (6-9)
Andreas Ottensamer, Leonidas Kavakos, Christoph Koncz, Antoine Tamestit, Stephan Koncz, Ödon Rácz, Oskar Ökrös, Predrag Tomic / Brahms: The Hungarian Connection (10)
--------------------------------------------------------------------------------
DR Peak RMS Duration Track
--------------------------------------------------------------------------------
DR15 -0.30 dB -21.70 dB 11:43 02-Brahms: Clarinet Quintet in B minor, Op.115 - 2. Adagio
DR13 -0.46 dB -18.87 dB 13:02 01-Brahms: Clarinet Quintet in B minor, Op.115 - 1. Allegro
DR13 -2.10 dB -21.19 dB 4:52 03-Brahms: Clarinet Quintet in B minor, Op.115 - 3. Andantino - Presto non assai, ma con sentimento
DR14 -1.01 dB -20.81 dB 10:19 04-Brahms: Clarinet Quintet in B minor, Op.115 - 4. Con moto
DR12 -3.06 dB -19.97 dB 2:53 05-Brahms: Two Waltzes in A Major, Op.39, No.15 & Op.52, No.6
DR14 -0.22 dB -19.78 dB 2:13 06-Brahms: Hungarian Dance No. 7 in F major, WoO 1
DR13 -0.22 dB -17.75 dB 5:30 07-Brahms: Hungarian Dance No. 1 in G minor (Isteni Csárdás), WoO 1
DR11 -2.16 dB -20.87 dB 2:27 08-Weiner: Két Tétel - Búsuló juhász (Woeful Shepherd)
DR12 -0.22 dB -14.74 dB 2:03 09-Weiner: Két Tétel - Csűrdöngölő (Barndance)
DR12 -0.22 dB -16.00 dB 6:47 10-Traditional: Dances From Transylvania
--------------------------------------------------------------------------------
Number of tracks: 10
Official DR value: DR13
Samplerate: 96000 Hz
Channels: 2
Bits per sample: 24
Bitrate: 2628 kbps
Codec: FLAC
================================================================================

Скриншот спектра частот

Доп. информация

При скачивании, если необходимо, переименуйте папку, в которой будет находиться альбомБольшая просьба к скачавшим поддерживать раздачу! Помогайте другим, ведь вам тоже может понадобиться помощь!Не забываем говорить "Спасибо"!Комментарии приветствуются!
[teatrix.ru].t21551.torrent 
Торрент: Зарегистрирован [ 2016-03-20 12:32 ] · E8E7A4ADD67DF7B8A4E4A069DF5D766098C8C3D9

Скачать .torrent

Скачать

12 KB

Статус: проверено
Скачан: 0 раз
Размер: 1.09 GB
terms.php



Быстрый ответ

Имя:

      
Для отправки сообщений необходимо включить JavaScript
Показать сообщения:    

Текущее время: 08-Дек 07:05

Часовой пояс: UTC + 3


Вы можете начинать темы
Вы можете отвечать на сообщения
Вы не можете редактировать свои сообщения
Вы не можете удалять свои сообщения
Вы не можете голосовать в опросах
Вы не можете прикреплять файлы к сообщениям
Вы можете скачивать файлы