(Orchestral) Gustav Mahler - Symphonie Nr.7 (Rundfunk-Sinfonieorchester Saarbrucken - Hans Zender) - 1997, FLAC (image+.cue) lossless


 

[Цитировать]

Mahler
Symphony No.7
Rundfunk-Sinfonieorchester Saarbrücken
Hans Zender
--- Жанр: Orchestral
Страна-производитель диска: Germany
Год издания диска: 1997
Издатель (лейбл): CPO
Дата записи: 8-11.01.1982
Аудиокодек: FLAC
Тип рипа: image+.cue
Битрейт аудио: lossless
Продолжительность: 78'38''
Источник: собственный рип
Наличие сканов в содержимом раздачи: да
Треклист:
G.Mahler - Symphonie Nr.7
[01] Langsam (Adagio) - Allegro сon аuoco
[02] Nachtmusik. Allegro moderato
[03] Scherzo. Schattenhaft
[04] Nachtmusik. Andante amoroso
[05] Rondo. Finale
Исполнители:
Rundfunk-Sinfonieorchester Saarbrücken - Hans Zender-

Лог создания рипа

Exact Audio Copy V1.0 beta 4 from 7. December 2014
EAC extraction logfile from 12. January 2015, 15:46
RSO Saarbrucken - Hans Zender / Mahler. Symphony No 7
Used drive : HL-DT-STDVD+-RW GU90N Adapter: 1 ID: 0
Read mode : Secure
Utilize accurate stream : Yes
Defeat audio cache : Yes
Make use of C2 pointers : No
Read offset correction : 102
Overread into Lead-In and Lead-Out : No
Fill up missing offset samples with silence : Yes
Delete leading and trailing silent blocks : No
Null samples used in CRC calculations : Yes
Used interface : Native Win32 interface for Win NT & 2000
Used output format : User Defined Encoder
Selected bitrate : 1024 kBit/s
Quality : High
Add ID3 tag : No
Command line compressor : C:\Program Files (x86)\FLAC\flac.exe
Additional command line options : -T "COMMENT=rip by el coronel" -8 -V %source%
TOC of the extracted CD
Track | Start | Length | Start sector | End sector
---------------------------------------------------------
1 | 0:00.00 | 22:04.00 | 0 | 99299
2 | 22:04.00 | 14:46.00 | 99300 | 165749
3 | 36:50.00 | 10:38.00 | 165750 | 213599
4 | 47:28.00 | 12:55.00 | 213600 | 271724
5 | 60:23.00 | 18:15.00 | 271725 | 353849
Range status and errors
Selected range
Filename F:\Music\Mahler 7 Zender\CD.wav
Peak level 98.8 %
Extraction speed 5.1 X
Range quality 100.0 %
Test CRC 1E0C2416
Copy CRC 1E0C2416
Copy OK
No errors occurred
AccurateRip summary
Track 1 accurately ripped (confidence 3) [C66EB8DC] (AR v2)
Track 2 accurately ripped (confidence 3) [2A3C827E] (AR v2)
Track 3 accurately ripped (confidence 3) [38F2C076] (AR v2)
Track 4 accurately ripped (confidence 3) [55B25248] (AR v2)
Track 5 accurately ripped (confidence 3) [A870B83A] (AR v2)
All tracks accurately ripped
End of status report
---- CUETools DB Plugin V2.1.4
[CTDB TOCID: eOLt2zsQDQYaywCeI67HCpJA1uw-] disk not present in database
Submit result: eOLt2zsQDQYaywCeI67HCpJA1uw- has been uploaded
==== Log checksum 92ABDEBE5F33C2AA39FE9332CC17421ECE0AEF8E0F1DDA28BFBF68CD486ED2AD ====

Содержание индексной карты (.CUE)

REM GENRE "Romantic Era"
REM DATE 1997
REM DISCID 34126E05
REM COMMENT "ExactAudioCopy v1.0b4"
CATALOG 0761203947829
PERFORMER "RSO Saarbrucken - Hans Zender"
TITLE "Mahler. Symphony No 7"
FILE "CD.flac" WAVE
TRACK 01 AUDIO
TITLE "Langsam (Adagio) - Allegro сon аuoco"
PERFORMER "RSO Saarbrucken - Hans Zender"
ISRC DEB209647801
INDEX 01 00:00:00
TRACK 02 AUDIO
TITLE "Nachtmusik. Allegro moderato"
PERFORMER "RSO Saarbrucken - Hans Zender"
ISRC DEB209647802
INDEX 00 21:58:00
INDEX 01 22:04:00
TRACK 03 AUDIO
TITLE "Scherzo. Schattenhaft"
PERFORMER "RSO Saarbrucken - Hans Zender"
ISRC DEB209647803
INDEX 00 36:45:00
INDEX 01 36:50:00
TRACK 04 AUDIO
TITLE "Nachtmusik. Andante amoroso"
PERFORMER "RSO Saarbrucken - Hans Zender"
ISRC DEB209647804
INDEX 00 47:25:00
INDEX 01 47:28:00
TRACK 05 AUDIO
TITLE "Rondo. Finale"
PERFORMER "RSO Saarbrucken - Hans Zender"
ISRC DEB209647805
INDEX 00 60:19:00
INDEX 01 60:23:00
-Доп. информация: 7-ая Симфония Малера в исполнении еще одного авангардного композитора.



Показать сообщения:    

Текущее время: 09-Дек 16:34

Часовой пояс: UTC + 3


Вы не можете начинать темы
Вы не можете отвечать на сообщения
Вы не можете редактировать свои сообщения
Вы не можете удалять свои сообщения
Вы не можете голосовать в опросах
Вы не можете прикреплять файлы к сообщениям
Вы не можете скачивать файлы