Кумиры экрана. Леонид Быков (Руслан Заварзин) [2000, Личности и кумиры, DVB]


Статистика раздачи [Обновить пиров]
Размер:  458 MB   |    Зарегистрирован:  8 месяцев 18 дней   |    Скачан:  0 раз

Полного источника не было: Никогда

 
   
 
 
 

[Цитировать]

Кумиры экрана. Леонид Быков
Дата/Год выпуска: 2000
Страна: Россия
Жанр: Личности и кумиры
Продолжительность: 00:24:06
Перевод: Не требуется
Студия / издатель: ВТВ-сервис
Режиссер: Руслан Заварзин
Телеканал: Ретро
Описание:
Леонид Быков – это выдающийся советский актер, имя которого уже давно стало символом кинематографа СССР. Многие из его картин стали настоящими шедеврами, а потому сегодня, как и много лет назад, имя нашего сегодняшнего героя чтят многие поклонники кино того времени.Леонид Федорович Быков родился 12 декабря 1928 года в небольшом украинском селе Знаменское. Уже в детстве у Быкова проявился актерский талант.В 1945 году, уже будучи в Ленинграде, он поступил во 2-ю спецшколу для лётчиков (Аэротура), где проучился всего лишь месяц. Закончив актёрский факультет Харьковского театрального института в 1951 году (курс Д.И. Антоновича), Леонид Быков попал в труппу Харьковского государственного академического украинского драматического театра имени Т.Г. Шевченко, в котором проработал до 1960 года. В 1960-1968 годах — актёр и режиссёр киностудии "Ленфильм", с 1969 года — актёр и режиссёр Киевской киностудии имени А.П. Довженко. В 1952 году он сыграл свою первую роль в кино. Это был фильм режиссёров Исаака Шмарука и Виктора Ивченко "Судьба Марины". Леониду досталась эпизодическая роль простого деревенского паренька Сашко. В 1954 году режиссёры Александр Ивановский и Надежда Кошеверова приглашают Быкова на роль Пети Мокина в свою картину "Укротительница тигров". Фильм имел огромный успех у публики. С этого момента имя актёра Леонида Быкова стало известно всем...
Доп. информация: "Кумиры экрана" - авторская передача Народной артистки СССР Клары Лучко, выступающей в роли ведущей.
Сэмпл: https://www.sendspace.com/file/sd3i8w
качество: DVB
формат: MPG
Видео: MPEG2, 720:576, (4:3) 2240 Кбит/сек, 25,000 кадров/сек, (0.216 bit/pixel)
Аудио: MP2, 192 Кбит/сек, 48,0 КГц, 2 канала

MediaInfo

Общее
Полное имя : Леонид Быков.mpg
Формат : MPEG-PS
Размер файла : 458 Мбайт
Продолжительность : 25 м.
Режим общего битрейта : Переменный
Общий поток : 2481 Кбит/сек
Видео
Идентификатор : 224 (0xE0)
Формат : MPEG Video
Версия формата : Version 2
Профиль формата : Main@Main
Параметр BVOP формата : Да
Параметр матрицы формата : Выборочная
Параметр GOP формата : M=3, N=12
Структура изображения : Frame
Продолжительность : 25 м.
Вид битрейта : Переменный
Битрейт : 2240 Кбит/сек
Максимальный битрейт : 10000 Кбит/сек
Ширина : 720 пикселей
Высота : 576 пикселей
Соотношение сторон : 4:3
Частота кадров : 25,000 кадров/сек
Стандарт вещания : PAL
Цветовое пространство : YUV
Субдискретизация насыщенности : 4:2:0
Битовая глубина : 8 бит
Тип развёртки : Чересстрочная
Порядок развёртки : Верхнее поле первое
Метод сжатия : С потерями
Бит/(Пиксели*Кадры) : 0.216
Временной код первого кадра : 00:00:00:00
Оригинал временного кода : Group of pictures header
GOP, открыто/закрыто : Открыто
GOP, открыто/закрыто на первом кадре : Закрыто
Размер потока : 413 Мбайт (90%)
Аудио
Идентификатор : 192 (0xC0)
Формат : MPEG Audio
Версия формата : Version 1
Профиль формата : Layer 2
Продолжительность : 25 м.
Вид битрейта : Постоянный
Битрейт : 192 Кбит/сек
Каналы : 2 канала
Частота : 48,0 КГц
Метод сжатия : С потерями
Задержка видео : 17 мс.
Размер потока : 35,4 Мбайт (8%)

Скриншоты

Запись потока *.ts произведена тюнером цифрового телевидения. В связи с тем, что не все плееры воспроизводят поток *.ts (MPEG-TS) , в данном видеофайле мной был сделан ремукс потока *.ts (MPEG-TS) в *.mpg (MPEG-PS) программой VideoReDo.
[teatrix.ru].t21554.torrent 
Торрент: Зарегистрирован [ 2016-03-20 12:32 ] · 8071CB0BACD6A5CBF24D66EA5AAFFBECF11187ED

Скачать .torrent

Скачать

18 KB

Статус: проверено
Скачан: 0 раз
Размер: 458 MB
terms.php



Быстрый ответ

Имя:

      
Для отправки сообщений необходимо включить JavaScript
Показать сообщения:    

Текущее время: 07-Дек 19:22

Часовой пояс: UTC + 3


Вы можете начинать темы
Вы можете отвечать на сообщения
Вы не можете редактировать свои сообщения
Вы не можете удалять свои сообщения
Вы не можете голосовать в опросах
Вы не можете прикреплять файлы к сообщениям
Вы можете скачивать файлы