Кумиры экрана. Евгений Урбанский (Руслан Заварзин) [2000, Личности и кумиры, DVB]


Статистика раздачи [Обновить пиров]
Размер:  435 MB   |    Зарегистрирован:  8 месяцев 14 дней   |    Скачан:  0 раз

Полного источника не было: Никогда

 
   
 
 
 

[Цитировать]

Кумиры экрана. Евгений Урбанский
Дата/Год выпуска: 2000
Страна: Россия
Жанр: Личности и кумиры
Продолжительность: 00:24:06
Перевод: Не требуется
Студия / издатель: ВТВ-сервис
Режиссер: Руслан Заварзин
Телеканал: Ретро
Описание:
Евгений Урбанский родился 27 февраля 1932 года в Москве.Евгений окончил Школу-студию МХАТ (курс В. О. Топоркова) в 1957 году. В том же году был принят в труппу МДТ имени К. С. Станиславского.Творческая карьера Евгения Урбанского была короткой, но очень яркой. Дебютировав в главной роли в фильме Юлия Райзмана «Коммунист», он приобрёл любовь народа, кинокритиков и властей. Фильм вышел на экраны в 1957 году и был тепло принят публикой.В середине 1958 года он сыграл эпизодическую роль В фильме Г. Н. Чухрая «Баллада о солдате» ему досталась роль безымянного инвалида, которого герой фильма Алёша Скворцов случайно встречает на вокзале.В 1960 году Евгений согласился сняться у уважаемого им режиссёра Г. Н. Чухрая. В этом фильме «Чистое небо» ему предстояло сыграть главную роль — Героя Советского Союза, лётчика Алексея Астахова. По своей драматургии эта работа была одной из самых сложных в творческой биографии актёра. В том же году он собрал целый урожай призов на фестивалях в Москве, Мехико и Сан-Франциско. По опросу журнала «Советский экран», он был признан лучшим фильмом 1961 года.Лауреат Всесоюзного кинофестиваля в номинации «Первый приз за мужскую роль» за 1959 год. Заслуженный артист РСФСР (1962)...
Доп. информация: "Кумиры экрана" - авторская передача Народной артистки СССР Клары Лучко, выступающей в роли ведущей.
Сэмпл: https://www.sendspace.com/file/tjs9zj
качество: DVB
формат: MPG
Видео: MPEG2, 720:576, (4:3) 2109 Кбит/сек, 25,000 кадров/сек, (0.203 bit/pixel)
Аудио: MP2, 192 Кбит/сек, 48,0 КГц, 2 канала

MediaInfo

Общее
Полное имя : Евгений Урбанский.mpg
Формат : MPEG-PS
Размер файла : 435 Мбайт
Продолжительность : 25 м.
Режим общего битрейта : Переменный
Общий поток : 2348 Кбит/сек
Видео
Идентификатор : 224 (0xE0)
Формат : MPEG Video
Версия формата : Version 2
Профиль формата : Main@Main
Параметр BVOP формата : Да
Параметр матрицы формата : Выборочная
Параметр GOP формата : M=3, N=12
Структура изображения : Frame
Продолжительность : 25 м.
Вид битрейта : Переменный
Битрейт : 2109 Кбит/сек
Максимальный битрейт : 10000 Кбит/сек
Ширина : 720 пикселей
Высота : 576 пикселей
Соотношение сторон : 4:3
Частота кадров : 25,000 кадров/сек
Стандарт вещания : PAL
Цветовое пространство : YUV
Субдискретизация насыщенности : 4:2:0
Битовая глубина : 8 бит
Тип развёртки : Чересстрочная
Порядок развёртки : Верхнее поле первое
Метод сжатия : С потерями
Бит/(Пиксели*Кадры) : 0.203
Временной код первого кадра : 00:00:00:00
Оригинал временного кода : Group of pictures header
GOP, открыто/закрыто : Открыто
GOP, открыто/закрыто на первом кадре : Закрыто
Размер потока : 391 Мбайт (90%)
Аудио
Идентификатор : 192 (0xC0)
Формат : MPEG Audio
Версия формата : Version 1
Профиль формата : Layer 2
Продолжительность : 25 м.
Вид битрейта : Постоянный
Битрейт : 192 Кбит/сек
Каналы : 2 канала
Частота : 48,0 КГц
Метод сжатия : С потерями
Задержка видео : 17 мс.
Размер потока : 35,6 Мбайт (8%)

Скриншоты

Запись потока *.ts произведена тюнером цифрового телевидения. В связи с тем, что не все плееры воспроизводят поток *.ts (MPEG-TS) , в данном видеофайле мной был сделан ремукс потока *.ts (MPEG-TS) в *.mpg (MPEG-PS) программой VideoReDo.
[teatrix.ru].t21555.torrent 
Торрент: Зарегистрирован [ 2016-03-20 12:32 ] · C913B7FFD247393ECFDEF217CB9FB3EFFBF2F8A5

Скачать .torrent

Скачать

17 KB

Статус: проверено
Скачан: 0 раз
Размер: 435 MB
terms.php



Быстрый ответ

Имя:

      
Для отправки сообщений необходимо включить JavaScript
Показать сообщения:    

Текущее время: 04-Дек 09:04

Часовой пояс: UTC + 3


Вы можете начинать темы
Вы можете отвечать на сообщения
Вы не можете редактировать свои сообщения
Вы не можете удалять свои сообщения
Вы не можете голосовать в опросах
Вы не можете прикреплять файлы к сообщениям
Вы можете скачивать файлы