(Classical, Chamber) Smetana - String Quartets (The Travnicek Quartet) - 1994, FLAC (image+.cue), lossless


 

[Цитировать]

Smetana - String Quartets - The Travnicek Quartet
Жанр: Classical, Chamber
Страна-производитель диска: Germany
Год издания диска: 1994
Издатель (лейбл): Point Classics
Номер по каталогу: 2671872
Дата записи: ?
Аудиокодек: FLAC
Тип рипа: image+.cue
Битрейт аудио: lossless
Продолжительность: 44.19
Источник: собственный рип
Наличие сканов в содержимом раздачи: да
Исполнители: The Travnicek Quartet

Треклист:

String Quartet No. 1 e-moll
01. I. Allegro vivo appasionato
02. II. Allegro moderato a la Polka
03. III. Largo sostenutto
04. IV. Vivace
String Quartet No. 2 d-moll
05. I. Allegro
06. II. Allegro moderato - Andante cantibile
07. III. Allegro non piu moderato, ma agitato e con fuoco
08. IV. Finale: Presto
Total 44.19

Лог создания рипа:

Exact Audio Copy V1.0 beta 3 from 29. August 2011
Отчёт EAC об извлечении, выполненном 24. июня 2015, 17:16
The Travnicek Quartet / Smetana - String Quartets
Дисковод: Optiarc DVD RW AD-7260S Adapter: 0 ID: 1
Режим чтения : Достоверность
Использование точного потока : Да
Отключение кэша аудио : Да
Использование указателей C2 : Нет
Коррекция смещения при чтении : 48
Способность читать области Lead-in и Lead-out : Нет
Заполнение пропущенных сэмплов тишиной : Да
Удаление блоков с тишиной в начале и конце : Нет
При вычислениях CRC использовались нулевые сэмплы : Да
Интерфейс : Встроенный Win32-интерфейс для Win NT/2000
Выходной формат : Пользовательский кодировщик
Выбранный битрейт : 896 kBit/s
Качество : Высокий
Добавление ID3-тега : Нет
Утилита сжатия : C:\Program Files\FLAC Frontend\tools\flac.exe
Дополнительные параметры : -V -8 -T "Date=%year%" -T "Genre=%genre%" %source%
TOC извлечённого CD
Трек | Старт | Длительность | Начальный сектор | Конечный сектор
---------------------------------------------------------------------
1 | 0:00.30 | 7:17.70 | 30 | 32874
2 | 7:18.25 | 5:35.68 | 32875 | 58067
3 | 12:54.18 | 8:07.35 | 58068 | 94627
4 | 21:01.53 | 5:50.03 | 94628 | 120880
5 | 26:51.56 | 5:10.14 | 120881 | 144144
6 | 32:01.70 | 5:31.65 | 144145 | 169034
7 | 37:33.60 | 4:37.48 | 169035 | 189857
8 | 42:11.33 | 2:34.13 | 189858 | 201420
Характеристики диапазона извлечения и сообщения об ошибках
Выбранный диапазон
Имя файла D:\EAC\Мои раздачи\Smetana - String Quartets - The Travnicek Quartet\The Travnicek Quartet - Smetana - String Quartets.wav
Пиковый уровень 49.7 %
Скорость извлечения 3.7 X
Качество диапазона 100.0 %
CRC теста FD353E45
CRC копии FD353E45
Копирование... OK
Ошибок не произошло
AccurateRip: сводка
Трек 1 : извлечено точно (доверие 3) [CC967FE4] (AR v2)
Трек 2 : извлечено точно (доверие 3) [1F82BE48] (AR v2)
Трек 3 : извлечено точно (доверие 3) [F7B194FA] (AR v2)
Трек 4 : извлечено точно (доверие 3) [6F66C622] (AR v2)
Трек 5 : извлечено точно (доверие 3) [7B820663] (AR v2)
Трек 6 : извлечено точно (доверие 3) [4D52CF81] (AR v2)
Трек 7 : извлечено точно (доверие 3) [310F271B] (AR v2)
Трек 8 : извлечено точно (доверие 3) [D940A8FF] (AR v2)
Все треки извлечены точно
Конец отчёта
==== Контрольная сумма отчёта 25A574E864B17327B81BF1B51D264BB64CA7629C8473CEB8EF646EFD5167FAFE ====



Показать сообщения:    

Текущее время: 03-Дек 12:37

Часовой пояс: UTC + 3


Вы не можете начинать темы
Вы не можете отвечать на сообщения
Вы не можете редактировать свои сообщения
Вы не можете удалять свои сообщения
Вы не можете голосовать в опросах
Вы не можете прикреплять файлы к сообщениям
Вы не можете скачивать файлы