Самарские судьбы. Антон Чехов (Дмитрий Ионов) [2012, документальный, познавательный, DVB]


Статистика раздачи [Обновить пиров]
Размер:  694 MB   |    Зарегистрирован:  8 месяцев 20 дней   |    Скачан:  0 раз

Полного источника не было: Никогда

 
   
 
 
 

[Цитировать]

Самарские судьбы. Антон Чехов
Дата/Год выпуска: 2012
Страна: Россия
Жанр: документальный, познавательный
Продолжительность: 00:33:28
Перевод: Не требуется
Режиссер: Дмитрий Ионов
Телеканал: 365 дней
Описание: Документальный фильм о неординарных, талантливых людях, чьи биографии оказались связаны с Самарской областью, в частности, об Антоне Павловиче Чехове. В фильме представлено большое количество документальных материалов, писем, исследований самарских краеведов и биографов великого писателя, а также фрагменты фильмов "Дама с собачкой" (1960), "Размазня" (2010), "Доктор Чехов. Рецепт бессмертия" (2010).
Сэмпл: http://sendfile.su/1131414
качество: DVB
формат: MPG
Видео: Video: MPEG2 Video 720x576 (4:3) 25fps [V: mpeg2 main, yuv420p, 720x576]
Аудио: Audio: MPEG Audio 48000Hz stereo 192kbps [A: mp2, 48000 Hz, stereo, 192 kb/s]

MediaInfo

General
Complete name : F:\Фильмы\Самарские судьбы. Антон Чехов.mpg
Format : MPEG-PS
File size : 694 MiB
Duration : 33mn 28s
Overall bit rate mode : Variable
Overall bit rate : 2 898 Kbps
Writing library : (c) 1998-2010 Womble Multimedia, Inc. / MPEG Video Wizard DVD 5.0.0.114 (01/2010) / Nov 13 2010
Video
ID : 224 (0xE0)
Format : MPEG Video
Format version : Version 2
Format profile : Main@Main
Format settings, BVOP : Yes
Format settings, Matrix : Custom
Format settings, GOP : Variable
Format settings, picture struc : Frame
Duration : 33mn 28s
Bit rate mode : Variable
Bit rate : 2 649 Kbps
Maximum bit rate : 15.0 Mbps
Width : 720 pixels
Height : 576 pixels
Display aspect ratio : 4:3
Frame rate : 25.000 fps
Standard : PAL
Color space : YUV
Chroma subsampling : 4:2:0
Bit depth : 8 bits
Scan type : Interlaced
Scan order : Top Field First
Compression mode : Lossy
Bits/(Pixel*Frame) : 0.255
Time code of first frame : 00:00:00:00
Time code source : Group of pictures header
Stream size : 634 MiB (91%)
Writing library : (c) 1998-2010 Womble Multimedia, Inc. / MPEG Video Wizard DVD 5.0.0.114 (01/2010) / Nov 13 2010
Audio
ID : 192 (0xC0)
Format : MPEG Audio
Format version : Version 1
Format profile : Layer 2
Duration : 33mn 28s
Bit rate mode : Constant
Bit rate : 192 Kbps
Channel(s) : 2 channels
Sampling rate : 48.0 KHz
Compression mode : Lossy
Delay relative to video : 24ms
Stream size : 46.0 MiB (7%)
[teatrix.ru].t21557.torrent 
Торрент: Зарегистрирован [ 2016-03-20 12:35 ] · 04107A799ABEFE394EA755C805DEF3740F5AF636

Скачать .torrent

Скачать

14 KB

Статус: проверено
Скачан: 0 раз
Размер: 694 MB
terms.php



Быстрый ответ

Имя:

      
Для отправки сообщений необходимо включить JavaScript
Показать сообщения:    

Текущее время: 10-Дек 10:01

Часовой пояс: UTC + 3


Вы можете начинать темы
Вы можете отвечать на сообщения
Вы не можете редактировать свои сообщения
Вы не можете удалять свои сообщения
Вы не можете голосовать в опросах
Вы не можете прикреплять файлы к сообщениям
Вы можете скачивать файлы