(Opera) Donizetti - Roberto Devereux (Caballe, Sardinero, Marsee, Carreras - Orchestre & Choeurs du Capitole de Toulouse, Rudel) • Bonustracks, Roberto Devereux, Rossi (Gencer, Bondino) - 1999, APE (image+.cue) lossless


 

[Цитировать]

Gaetano Donizetti - Roberto Devereux
Жанр: Opera
Страна-производитель диска: Germany
Год издания диска: 1999
Издатель (лейбл): Gala
Номер по каталогу: GL 100.528
Дата записи: 1977-1964
Аудиокодек: APE
Тип рипа: image+.cue
Битрейт аудио: lossless
Продолжительность: 73'33+77'40
Источник: собственный рип
Наличие сканов в содержимом раздачи: да
Треклист:

CD1

1. Overture
2. A deadly pallor
3. To one who is sad wheeping sweet
4. To your husband's eager requests
5. His love was a blessing to me
6. I am the official spokesman of the parliament
7. Essex begs permission
8. Ah! May you return as i hope you to be
9. Royal Lady, I am at your feet
10. A tender heart makes me happy
11. A flash, a terrible flash
12. Roberto!
13. Perhaps in that sensitive heart
14. Come, duke: the Queen summons
15. Here everyone calls you traitor
16. All is silence
17. Once, ah, cruel woman
18. Since you returned
19. Ah, this farewell, fatal and final
20. The hours are passing
21. Well then
22. My Queen
23. Never have I come so saddened
24. Let not the lightning

CD2

1. Here is the unworthy one!
2. Traitor!
3. Everyone listen
4. Go death
5. My husband has not returned yet!
6. Duchess!
7. The duke
8. Don't you know that betrayed husbands
9. See the anguish that torments me
10. And still the dread door
11. To you I will say...Like an angelic spirit
12. Come, oh earl
13. With my breast bathed in tears
14. And Sara in these dreadful minutes
15. Live ungrateful man, at her side
16. What do you bring me?
17. This ring, where did you get it?
18. He is dead!
19. That spilled blood
Исполнители:
Gaetano Donizetti - Roberto Devereux
Elisabetta, Queen of England - Montserrat Caballé, soprano
The Duke of Nottingham - Vincenzo Sardinero, baritone
Sara, Duchess of Nottingham - Susanne Marsee, mezzo-soprano
Roberto Devereux, Earl of Essex - José Carreras, tenor
Lord Cecil - Ferruccio Furlanetto, tenor
Sir Gualtiero Raleigh - Michel Philippe, bass
Choeurs du Capitole de Toulouse
Orchestre du Capitole de Toulouse
Conductor Julius Rudel
performed in Italian
Bonustracks:
CD2
20. Royal lady, I am at your feet
21. A tender heart makes me happy
22. A flash, a terrible flash
23. And Sara in these dreadful minutes
24. Live ungrateful man, at her side
25. What do you bring me?
26. This ring, where did you get it?
27. He is dead!
28. That spilled blood
Elisabetta - Leyla Gencer
Roberto - Ruggero Bondino
Sara - Anna Maria Rota
Lord Cecil - Gabriele De Julis
Coro e Orchestra del Teatro San Carlo di Napoli
Conductor Mario Rossi

Лог создания рипа

CD1

Exact Audio Copy V1.0 beta 6 from 9. April 2015
EAC extraction logfile from 10. June 2015, 17:58
Donizetti / Roberto Devereux, Rudel CD1
Used drive : TSSTcorpCDDVDW SE-208AB Adapter: 1 ID: 1
Read mode : Secure
Utilize accurate stream : Yes
Defeat audio cache : Yes
Make use of C2 pointers : No
Read offset correction : 6
Overread into Lead-In and Lead-Out : No
Fill up missing offset samples with silence : Yes
Delete leading and trailing silent blocks : No
Null samples used in CRC calculations : Yes
Used interface : Native Win32 interface for Win NT & 2000
Used output format : Monkey's Audio Lossless Encoder
Selected bitrate : High Lossless Compression
Quality : High
Add ID3 tag : Yes
Command line compressor : C:\Program Files (x86)\Exact Audio Copy\MAC\MAC.exe
TOC of the extracted CD
Track | Start | Length | Start sector | End sector
---------------------------------------------------------
1 | 0:00.00 | 6:44.17 | 0 | 30316
2 | 6:44.17 | 3:32.23 | 30317 | 46239
3 | 10:16.40 | 2:47.72 | 46240 | 58836
4 | 13:04.37 | 3:16.10 | 58837 | 73546
5 | 16:20.47 | 2:55.03 | 73547 | 86674
6 | 19:15.50 | 1:04.30 | 86675 | 91504
7 | 20:20.05 | 1:45.05 | 91505 | 99384
8 | 22:05.10 | 1:50.50 | 99385 | 107684
9 | 23:55.60 | 4:56.45 | 107685 | 129929
10 | 28:52.30 | 3:23.07 | 129930 | 145161
11 | 32:15.37 | 3:41.50 | 145162 | 161786
12 | 35:57.12 | 3:09.33 | 161787 | 175994
13 | 39:06.45 | 2:44.60 | 175995 | 188354
14 | 41:51.30 | 1:29.17 | 188355 | 195046
15 | 43:20.47 | 3:39.18 | 195047 | 211489
16 | 46:59.65 | 2:01.60 | 211490 | 220624
17 | 49:01.50 | 3:49.30 | 220625 | 237829
18 | 52:51.05 | 5:47.25 | 237830 | 263879
19 | 58:38.30 | 2:10.55 | 263880 | 273684
20 | 60:49.10 | 4:28.12 | 273685 | 293796
21 | 65:17.22 | 0:39.55 | 293797 | 296776
22 | 65:57.02 | 2:20.20 | 296777 | 307296
23 | 68:17.22 | 2:51.43 | 307297 | 320164
24 | 71:08.65 | 2:22.60 | 320165 | 330874
Range status and errors
Selected range
Filename G:\RIPS\CD's\01 KLASSIEK\Donizetti - Roberto Devereux, Rudel\Donizetti - Roberto Devereux, Rudel CD1.wav
Peak level 83.9 %
Extraction speed 4.8 X
Range quality 99.9 %
Test CRC F2FF5F44
Copy CRC F2FF5F44
Copy OK
No errors occurred
AccurateRip summary
Track 1 accurately ripped (confidence 1) [9F1A80E1] (AR v1)
Track 2 accurately ripped (confidence 1) [8885B6B2] (AR v1)
Track 3 accurately ripped (confidence 1) [8F3662FE] (AR v1)
Track 4 accurately ripped (confidence 1) [A4A5FAEB] (AR v1)
Track 5 accurately ripped (confidence 1) [10C48FBD] (AR v1)
Track 6 accurately ripped (confidence 1) [779C6F0E] (AR v1)
Track 7 accurately ripped (confidence 1) [6D544CBF] (AR v1)
Track 8 accurately ripped (confidence 1) [3DF720A8] (AR v1)
Track 9 accurately ripped (confidence 1) [98DD65BB] (AR v1)
Track 10 accurately ripped (confidence 1) [8539B289] (AR v1)
Track 11 accurately ripped (confidence 1) [CDB29CC0] (AR v1)
Track 12 accurately ripped (confidence 1) [241C81A1] (AR v1)
Track 13 accurately ripped (confidence 1) [1D833AAA] (AR v1)
Track 14 accurately ripped (confidence 1) [8604DEFD] (AR v1)
Track 15 accurately ripped (confidence 1) [4ECBA5CE] (AR v1)
Track 16 accurately ripped (confidence 1) [53C334C1] (AR v1)
Track 17 accurately ripped (confidence 1) [B1FA88FC] (AR v1)
Track 18 accurately ripped (confidence 1) [11BA043B] (AR v1)
Track 19 accurately ripped (confidence 1) [FD33C733] (AR v1)
Track 20 accurately ripped (confidence 1) [A927D9A3] (AR v1)
Track 21 accurately ripped (confidence 1) [3C08F106] (AR v1)
Track 22 accurately ripped (confidence 1) [FCD783DE] (AR v1)
Track 23 accurately ripped (confidence 1) [82BE31CF] (AR v1)
Track 24 cannot be verified as accurate (confidence 1) [934000D4], AccurateRip returned [061CBC40] (AR v2)
23 track(s) accurately ripped
1 track(s) could not be verified as accurate
Some tracks could not be verified as accurate
End of status report
---- CUETools DB Plugin V2.1.6
[CTDB TOCID: qwreGHApwb5gdBSuatDnaRIw9aA-] disk not present in database
Submit result: qwreGHApwb5gdBSuatDnaRIw9aA- has been uploaded
==== Log checksum CBF7DF21ED8A5F6E8167C5320F4F347B915129ED11DDBBAAC5944984460B2021 ====

CD2

Exact Audio Copy V1.0 beta 6 from 9. April 2015
EAC extraction logfile from 10. June 2015, 17:20
Donizetti / Roberto Devereux, Rudel CD2
Used drive : TSSTcorpCDDVDW SE-208AB Adapter: 1 ID: 1
Read mode : Secure
Utilize accurate stream : Yes
Defeat audio cache : Yes
Make use of C2 pointers : No
Read offset correction : 6
Overread into Lead-In and Lead-Out : No
Fill up missing offset samples with silence : Yes
Delete leading and trailing silent blocks : No
Null samples used in CRC calculations : Yes
Used interface : Native Win32 interface for Win NT & 2000
Used output format : Monkey's Audio Lossless Encoder
Selected bitrate : High Lossless Compression
Quality : High
Add ID3 tag : Yes
Command line compressor : C:\Program Files (x86)\Exact Audio Copy\MAC\MAC.exe
TOC of the extracted CD
Track | Start | Length | Start sector | End sector
---------------------------------------------------------
1 | 0:00.00 | 5:49.25 | 0 | 26199
2 | 5:49.25 | 2:22.57 | 26200 | 36906
3 | 8:12.07 | 1:09.05 | 36907 | 42086
4 | 9:21.12 | 2:53.73 | 42087 | 55134
5 | 12:15.10 | 0:50.20 | 55135 | 58904
6 | 13:05.30 | 1:05.72 | 58905 | 63851
7 | 14:11.27 | 1:52.73 | 63852 | 72324
8 | 16:04.25 | 4:32.17 | 72325 | 92741
9 | 20:36.42 | 3:02.03 | 92742 | 106394
10 | 23:38.45 | 4:04.30 | 106395 | 124724
11 | 27:43.00 | 3:35.60 | 124725 | 140909
12 | 31:18.60 | 0:56.47 | 140910 | 145156
13 | 32:15.32 | 2:26.18 | 145157 | 156124
14 | 34:41.50 | 4:02.02 | 156125 | 174276
15 | 38:43.52 | 3:52.05 | 174277 | 191681
16 | 42:35.57 | 0:46.60 | 191682 | 195191
17 | 43:22.42 | 0:58.20 | 195192 | 199561
18 | 44:20.62 | 1:26.65 | 199562 | 206076
19 | 45:47.52 | 5:05.42 | 206077 | 228993
20 | 50:53.19 | 4:34.26 | 228994 | 249569
21 | 55:27.45 | 3:15.20 | 249570 | 264214
22 | 58:42.65 | 3:09.37 | 264215 | 278426
23 | 61:52.27 | 3:25.63 | 278427 | 293864
24 | 65:18.15 | 3:37.45 | 293865 | 310184
25 | 68:55.60 | 0:54.60 | 310185 | 314294
26 | 69:50.45 | 1:03.47 | 314295 | 319066
27 | 70:54.17 | 1:39.68 | 319067 | 326559
28 | 72:34.10 | 5:03.67 | 326560 | 349351
Range status and errors
Selected range
Filename G:\RIPS\CD's\01 KLASSIEK\Donizetti - Roberto Devereux, Rudel\Donizetti - Roberto Devereux, Rudel CD2.wav
Peak level 94.9 %
Extraction speed 2.3 X
Range quality 100.0 %
Test CRC A624B27C
Copy CRC A624B27C
Copy OK
No errors occurred
AccurateRip summary
Track 1 accurately ripped (confidence 1) [EB8E2E92] (AR v1)
Track 2 accurately ripped (confidence 1) [862CD2A5] (AR v1)
Track 3 accurately ripped (confidence 1) [9F1B77E8] (AR v1)
Track 4 accurately ripped (confidence 1) [A01B04E0] (AR v1)
Track 5 accurately ripped (confidence 1) [2D263418] (AR v1)
Track 6 accurately ripped (confidence 1) [4F37E7C7] (AR v1)
Track 7 accurately ripped (confidence 1) [B58310A0] (AR v1)
Track 8 accurately ripped (confidence 1) [1ACD43D1] (AR v1)
Track 9 accurately ripped (confidence 1) [B7897D89] (AR v1)
Track 10 accurately ripped (confidence 1) [86235D1A] (AR v1)
Track 11 accurately ripped (confidence 1) [0D0B2CB0] (AR v1)
Track 12 accurately ripped (confidence 1) [C719C111] (AR v1)
Track 13 accurately ripped (confidence 1) [36C79BDC] (AR v1)
Track 14 accurately ripped (confidence 1) [89FA8EC3] (AR v1)
Track 15 accurately ripped (confidence 1) [BFCD2381] (AR v1)
Track 16 accurately ripped (confidence 1) [72390BE2] (AR v1)
Track 17 accurately ripped (confidence 1) [9D59BB63] (AR v1)
Track 18 accurately ripped (confidence 1) [96FBA524] (AR v1)
Track 19 accurately ripped (confidence 1) [A7250843] (AR v1)
Track 20 accurately ripped (confidence 1) [CC7468C3] (AR v1)
Track 21 accurately ripped (confidence 1) [AAC8F211] (AR v1)
Track 22 cannot be verified as accurate (confidence 1) [D8C32C5C], AccurateRip returned [82B9F6DB] (AR v2)
Track 23 cannot be verified as accurate (confidence 1) [864919CE], AccurateRip returned [A9DF41D2] (AR v2)
Track 24 cannot be verified as accurate (confidence 1) [37727526], AccurateRip returned [0805DEDF] (AR v2)
Track 25 cannot be verified as accurate (confidence 1) [43CD3209], AccurateRip returned [858CEB65] (AR v2)
Track 26 cannot be verified as accurate (confidence 1) [6CE27E2D], AccurateRip returned [956F27E2] (AR v2)
Track 27 cannot be verified as accurate (confidence 1) [C4DEB482], AccurateRip returned [3710EAC9] (AR v2)
Track 28 cannot be verified as accurate (confidence 1) [2D1870C1], AccurateRip returned [87F3444A] (AR v2)
21 track(s) accurately ripped
7 track(s) could not be verified as accurate
Some tracks could not be verified as accurate
End of status report
---- CUETools DB Plugin V2.1.6
[CTDB TOCID: 5a1wEAyKUyQZFWs7DVkRkiSELco-] disk not present in database
Submit result: 5a1wEAyKUyQZFWs7DVkRkiSELco- has been uploaded
==== Log checksum 443D45398AA2C355E91D9A94E7D92DCCFB12D50ECF32708A8E1D377880C1E3E3 ====

Содержание индексной карты (.CUE)

CD1

REM GENRE Opera
REM DATE 1977
REM DISCID 68113B18
REM COMMENT "ExactAudioCopy v1.0b6"
CATALOG 0000000000000
PERFORMER "Donizetti"
TITLE "Roberto Devereux, Rudel CD1"
FILE "Donizetti - Roberto Devereux, Rudel CD1.ape" WAVE
TRACK 01 AUDIO
TITLE "Overture"
PERFORMER "Donizetti"
INDEX 01 00:00:00
TRACK 02 AUDIO
TITLE "A deadly pallor"
PERFORMER "Donizetti"
INDEX 01 06:44:17
TRACK 03 AUDIO
TITLE "To one who is sad wheeping sweet"
PERFORMER "Donizetti"
INDEX 01 10:16:40
TRACK 04 AUDIO
TITLE "To your husband's eager requests"
PERFORMER "Donizetti"
INDEX 01 13:04:37
TRACK 05 AUDIO
TITLE "His love was a blessing to me"
PERFORMER "Donizetti"
INDEX 01 16:20:47
TRACK 06 AUDIO
TITLE "I am the official spokesman of the parliament"
PERFORMER "Donizetti"
INDEX 01 19:15:50
TRACK 07 AUDIO
TITLE "Essex begs permission"
PERFORMER "Donizetti"
INDEX 01 20:20:05
TRACK 08 AUDIO
TITLE "Ah! May you return as i hope you to be"
PERFORMER "Donizetti"
INDEX 01 22:05:10
TRACK 09 AUDIO
TITLE "Royal Lady, I am at your feet"
PERFORMER "Donizetti"
INDEX 01 23:55:60
TRACK 10 AUDIO
TITLE "A tender heart makes me happy"
PERFORMER "Donizetti"
INDEX 01 28:52:30
TRACK 11 AUDIO
TITLE "A flash, a terrible flash"
PERFORMER "Donizetti"
INDEX 01 32:15:37
TRACK 12 AUDIO
TITLE "Roberto!"
PERFORMER "Donizetti"
INDEX 01 35:57:12
TRACK 13 AUDIO
TITLE "Pehaps in that sensitive heart"
PERFORMER "Donizetti"
INDEX 01 39:06:45
TRACK 14 AUDIO
TITLE "Come, duke: the Queen summons"
PERFORMER "Donizetti"
INDEX 01 41:51:30
TRACK 15 AUDIO
TITLE "Here everyone calls you traitor"
PERFORMER "Donizetti"
INDEX 01 43:20:47
TRACK 16 AUDIO
TITLE "All is silence"
PERFORMER "Donizetti"
INDEX 00 46:54:70
INDEX 01 46:59:65
TRACK 17 AUDIO
TITLE "Once, ah, cruel woman"
PERFORMER "Donizetti"
INDEX 01 49:01:50
TRACK 18 AUDIO
TITLE "Since you returned"
PERFORMER "Donizetti"
INDEX 01 52:51:05
TRACK 19 AUDIO
TITLE "Ah, this farewell, fatal and final"
PERFORMER "Donizetti"
INDEX 01 58:38:30
TRACK 20 AUDIO
TITLE "The hours are passing"
PERFORMER "Donizetti"
INDEX 00 60:44:30
INDEX 01 60:49:10
TRACK 21 AUDIO
TITLE "Well then"
PERFORMER "Donizetti"
INDEX 01 65:17:22
TRACK 22 AUDIO
TITLE "My Queen"
PERFORMER "Donizetti"
INDEX 01 65:57:02
TRACK 23 AUDIO
TITLE "Never have I come so saddened"
PERFORMER "Donizetti"
INDEX 01 68:17:22
TRACK 24 AUDIO
TITLE "Let not the lightning"
PERFORMER "Donizetti"
INDEX 01 71:08:65

CD2

REM GENRE Opera
REM DATE 1977
REM DISCID AC12321C
REM COMMENT "ExactAudioCopy v1.0b6"
PERFORMER "Donizetti"
TITLE "Roberto Devereux, Rudel CD2"
FILE "Donizetti - Roberto Devereux, Rudel CD2.ape" WAVE
TRACK 01 AUDIO
TITLE "Here is the unworthy one!"
PERFORMER "Donizetti"
INDEX 01 00:00:00
TRACK 02 AUDIO
TITLE "Traitor!"
PERFORMER "Donizetti"
INDEX 01 05:49:25
TRACK 03 AUDIO
TITLE "Everyone listen"
PERFORMER "Donizetti"
INDEX 01 08:12:07
TRACK 04 AUDIO
TITLE "Go death"
PERFORMER "Donizetti"
INDEX 01 09:21:12
TRACK 05 AUDIO
TITLE "My husband has not returned yet!"
PERFORMER "Donizetti"
INDEX 00 12:10:27
INDEX 01 12:15:10
TRACK 06 AUDIO
TITLE "Duchess!"
PERFORMER "Donizetti"
INDEX 01 13:05:30
TRACK 07 AUDIO
TITLE "The duke"
PERFORMER "Donizetti"
INDEX 01 14:11:27
TRACK 08 AUDIO
TITLE "Don't you know that betrayed husbands"
PERFORMER "Donizetti"
INDEX 01 16:04:25
TRACK 09 AUDIO
TITLE "See the anguish that torments me"
PERFORMER "Donizetti"
INDEX 01 20:36:42
TRACK 10 AUDIO
TITLE "And still the dread door"
PERFORMER "Donizetti"
INDEX 00 23:33:62
INDEX 01 23:38:45
TRACK 11 AUDIO
TITLE "To you I will say...Like an angelic spirit"
PERFORMER "Donizetti"
INDEX 01 27:43:00
TRACK 12 AUDIO
TITLE "Come, oh earl"
PERFORMER "Donizetti"
INDEX 01 31:18:60
TRACK 13 AUDIO
TITLE "With my breast bathed in tears"
PERFORMER "Donizetti"
INDEX 01 32:15:32
TRACK 14 AUDIO
TITLE "And Sara in these dreadful minutes"
PERFORMER "Donizetti"
INDEX 00 34:36:65
INDEX 01 34:41:50
TRACK 15 AUDIO
TITLE "Live ungrateful man, at her side"
PERFORMER "Donizetti"
INDEX 01 38:43:52
TRACK 16 AUDIO
TITLE "What do you bring me?"
PERFORMER "Donizetti"
INDEX 01 42:35:57
TRACK 17 AUDIO
TITLE "This ring, where did you get it?"
PERFORMER "Donizetti"
INDEX 01 43:22:42
TRACK 18 AUDIO
TITLE "He is dead!"
PERFORMER "Donizetti"
INDEX 01 44:20:62
TRACK 19 AUDIO
TITLE "That spilled blood"
PERFORMER "Donizetti"
INDEX 01 45:47:52
TRACK 20 AUDIO
TITLE "Bonus: Royal lady, I am at your feet"
PERFORMER "Donizetti"
INDEX 00 50:46:34
INDEX 01 50:53:19
TRACK 21 AUDIO
TITLE "A tender heart makes me happy"
PERFORMER "Donizetti"
INDEX 01 55:27:45
TRACK 22 AUDIO
TITLE "A flash, a terrible flash"
PERFORMER "Donizetti"
INDEX 01 58:42:65
TRACK 23 AUDIO
TITLE "And Sara in these dreadful minutes"
PERFORMER "Donizetti"
INDEX 00 61:47:35
INDEX 01 61:52:27
TRACK 24 AUDIO
TITLE "Live ungrateful man, at her side"
PERFORMER "Donizetti"
INDEX 01 65:18:15
TRACK 25 AUDIO
TITLE "What do you bring me?"
PERFORMER "Donizetti"
INDEX 01 68:55:60
TRACK 26 AUDIO
TITLE "This ring, where did you get it?"
PERFORMER "Donizetti"
INDEX 01 69:50:45
TRACK 27 AUDIO
TITLE "He ia dead!"
PERFORMER "Donizetti"
INDEX 01 70:54:17
TRACK 28 AUDIO
TITLE "That spilled blood"
PERFORMER "Donizetti"
INDEX 01 72:34:10



Показать сообщения:    

Текущее время: 09-Дек 08:49

Часовой пояс: UTC + 3


Вы не можете начинать темы
Вы не можете отвечать на сообщения
Вы не можете редактировать свои сообщения
Вы не можете удалять свои сообщения
Вы не можете голосовать в опросах
Вы не можете прикреплять файлы к сообщениям
Вы не можете скачивать файлы