(Baroque) VA - High Tech Baroque - Antonio Vivaldi, Johann Pachelbel, J. S. Bach, Francesco Manfredini, Tomaso Albinoni, George Frideric Handel, Luigi Boccherini, François Joseph Gossec - with audio test signals - 1990, FLAC (image+.cue) lossles


 

[Цитировать]

VA - High Tech Baroque
Жанр: Baroque
Страна-производитель диска: West Germany
Год издания диска: 1990
Издатель (лейбл): Philips Classics Productions
Номер по каталогу: 426 683-2
Дата записи: 1982-1990
Аудиокодек: FLAC
Тип рипа: image+.cue
Битрейт аудио: lossless
Продолжительность: 01:12:33
Источник: собственный рип
Наличие сканов в содержимом раздачи: да
Треклист:
Antonio Vivaldi
Le quattro stagioni, The Four seasons, La primavera (Spring)
01. Allegro (3:22)
02. Largo e pianissimo sempre (3:01)
03. Allegro, danza pastorale (4:04)
Johann Pachelbel
04. Canon (4:47)
Johann Sebastian Bach
Brandenburg Concerto No. 2 in F, BWV 1047
05. Allegro (4:55)
06. Andante (3:30)
07. Allegro assai (2:46)
Francesco Manfredini
Concerto in C, Op. 3 No. 12
08. Pastorale: Largo (4:00)
09. Largo (1:57)
10. Allegro (2:32)
Tomaso Albinoni
11. Adagio in G minor (6:27)
George Frideric Handel
Water Music
12. 6. Allegro deciso (3:13)
Luigi Boccherini
String Quintet in E, Op. 13 No. 5
13. Minuet (4:08)
Antonio Vivaldi
Concerto in G, RV 532
14. Allegro (4:01)
15. Andante (3:29)
16. Allegro (3:32)
François Joseph Gossec
17. Tambourin (1:20)
George Frideric Handel
Fireworks Music
18. Overture (7:39)
Audio test signals (4:27)
19. - 34.

Исполнители

01. - 03.
Viktoria Mullova, violin
Claudio Abbado
Chamber Orchestra of Europe
04.
I Musici
05. - 07.
Guy Touvron, trumpet
Michael Copley, recorder
Heinz Holliger, oboe
Pina Carmirelli, violin
I Musici
08. - 10.
I Musici
11.
(Publishers: Ed. G. Ricordi & Cie)
Boston Pops Orchestra
John Williams
12.
Pittsburgh Symphony Orchestra
André Previn
13.
I Musici
14. - 16.
Pepe & Angel Romero, guitars
Academy of St Martin in the Fields
Iona Brown
17.
Michala Petri, recorder
David Petri, cello
Hanne Petri, piano
18.
English Baroque Soloists
John Eliot Gardiner

Лог создания рипа

Exact Audio Copy V1.0 beta 3 from 29. August 2011
Отчёт EAC об извлечении, выполненном 24. июня 2015, 16:14
Various Artists / High Tech Baroque
Дисковод: ASUS DRW-1814BL Adapter: 1 ID: 1
Режим чтения : Достоверность
Использование точного потока : Да
Отключение кэша аудио : Да
Использование указателей C2 : Нет
Коррекция смещения при чтении : 6
Способность читать области Lead-in и Lead-out : Нет
Заполнение пропущенных сэмплов тишиной : Да
Удаление блоков с тишиной в начале и конце : Нет
При вычислениях CRC использовались нулевые сэмплы : Да
Интерфейс : Встроенный Win32-интерфейс для Win NT/2000
Выходной формат : Пользовательский кодировщик
Выбранный битрейт : 128 kBit/s
Качество : Высокий
Добавление ID3-тега : Нет
Утилита сжатия : C:\Program Files\Exact Audio Copy\Flac\flac.exe
Дополнительные параметры : -V -8 -T "Date=%year%" -T "Genre=%genre%" %source%
TOC извлечённого CD
Трек | Старт | Длительность | Начальный сектор | Конечный сектор
---------------------------------------------------------------------
1 | 0:00.33 | 3:22.00 | 33 | 15182
2 | 3:22.33 | 3:01.00 | 15183 | 28757
3 | 6:23.33 | 4:04.35 | 28758 | 47092
4 | 10:27.68 | 4:47.00 | 47093 | 68617
5 | 15:14.68 | 4:54.40 | 68618 | 90707
6 | 20:09.33 | 3:30.00 | 90708 | 106457
7 | 23:39.33 | 2:46.35 | 106458 | 118942
8 | 26:25.68 | 3:59.40 | 118943 | 136907
9 | 30:25.33 | 1:57.00 | 136908 | 145682
10 | 32:22.33 | 2:32.35 | 145683 | 157117
11 | 34:54.68 | 6:27.00 | 157118 | 186142
12 | 41:21.68 | 3:13.00 | 186143 | 200617
13 | 44:34.68 | 4:08.00 | 200618 | 219217
14 | 48:42.68 | 4:00.40 | 219218 | 237257
15 | 52:43.33 | 3:29.35 | 237258 | 252967
16 | 56:12.68 | 3:32.00 | 252968 | 268867
17 | 59:44.68 | 1:20.00 | 268868 | 274867
18 | 61:04.68 | 7:38.40 | 274868 | 309257
19 | 68:43.33 | 0:20.00 | 309258 | 310757
20 | 69:03.33 | 0:12.00 | 310758 | 311657
21 | 69:15.33 | 0:06.00 | 311658 | 312107
22 | 69:21.33 | 0:11.00 | 312108 | 312932
23 | 69:32.33 | 0:14.00 | 312933 | 313982
24 | 69:46.33 | 0:16.00 | 313983 | 315182
25 | 70:02.33 | 0:28.00 | 315183 | 317282
26 | 70:30.33 | 0:33.00 | 317283 | 319757
27 | 71:03.33 | 0:07.00 | 319758 | 320282
28 | 71:10.33 | 0:12.00 | 320283 | 321182
29 | 71:22.33 | 0:06.00 | 321183 | 321632
30 | 71:28.33 | 0:14.00 | 321633 | 322682
31 | 71:42.33 | 0:21.00 | 322683 | 324257
32 | 72:03.33 | 0:52.00 | 324258 | 328157
33 | 72:55.33 | 0:15.00 | 328158 | 329282
Характеристики диапазона извлечения и сообщения об ошибках
Выбранный диапазон
Имя файла C:\Documents and Settings\biotox\Рабочий стол\Новая папка\Various Artists - High Tech Baroque.wav
Пиковый уровень 97.7 %
Скорость извлечения 3.4 X
Качество диапазона 100.0 %
CRC теста 004C291A
CRC копии 004C291A
Копирование... OK
Ошибок не произошло
AccurateRip: сводка
Трек 1 : извлечено точно (доверие 1) [2947947A] (AR v2)
Трек 2 : извлечено точно (доверие 1) [09E509B1] (AR v2)
Трек 3 : извлечено точно (доверие 1) [3DBD5A20] (AR v2)
Трек 4 : извлечено точно (доверие 1) [93B1F491] (AR v2)
Трек 5 : извлечено точно (доверие 1) [F7FB02CF] (AR v2)
Трек 6 : извлечено точно (доверие 1) [48219ADC] (AR v2)
Трек 7 : извлечено точно (доверие 1) [592BF6C8] (AR v2)
Трек 8 : извлечено точно (доверие 1) [642C27E9] (AR v2)
Трек 9 : извлечено точно (доверие 1) [BFEB3F27] (AR v2)
Трек 10 : извлечено точно (доверие 1) [08B55513] (AR v2)
Трек 11 : извлечено точно (доверие 1) [89F94F33] (AR v2)
Трек 12 : извлечено точно (доверие 1) [7025DAC2] (AR v2)
Трек 13 : извлечено точно (доверие 1) [A596CF17] (AR v2)
Трек 14 : извлечено точно (доверие 1) [B11A1F0C] (AR v2)
Трек 15 : извлечено точно (доверие 1) [93926BB5] (AR v2)
Трек 16 : извлечено точно (доверие 1) [87D16143] (AR v2)
Трек 17 : извлечено точно (доверие 1) [09842B0F] (AR v2)
Трек 18 : извлечено точно (доверие 1) [9054FA66] (AR v2)
Трек 19 точность не определена (достоверность 1) [3E3ED127], AccurateRip вернул [D8BACB3F] (AR v2)
Трек 20 точность не определена (достоверность 1) [FE8FC121], AccurateRip вернул [EFD41751] (AR v2)
Трек 21 отсутствует в базе данных
Трек 22 точность не определена (достоверность 1) [E796EA36], AccurateRip вернул [26B80000] (AR v2)
Трек 23 точность не определена (достоверность 1) [DA0C5418], AccurateRip вернул [3C47004C] (AR v2)
Трек 24 точность не определена (достоверность 1) [FF2B3807], AccurateRip вернул [607A6965] (AR v2)
Трек 25 точность не определена (достоверность 1) [1FE7F0BC], AccurateRip вернул [8C551255] (AR v2)
Трек 26 точность не определена (достоверность 1) [CD357EF2], AccurateRip вернул [A23BB607] (AR v2)
Трек 27 отсутствует в базе данных
Трек 28 точность не определена (достоверность 1) [89180BBA], AccurateRip вернул [A39272CC] (AR v2)
Трек 29 отсутствует в базе данных
Трек 30 точность не определена (достоверность 1) [7A588190], AccurateRip вернул [4B870000] (AR v2)
Трек 31 точность не определена (достоверность 1) [55BFAC6D], AccurateRip вернул [00AF47B9] (AR v2)
Трек 32 точность не определена (достоверность 1) [C0AFEF40], AccurateRip вернул [261D579D] (AR v2)
Трек 33 точность не определена (достоверность 1) [794D2AD5], AccurateRip вернул [12628391] (AR v2)
18 трек(и) скопированы точно
12 трек(и) не удалось проверить на точность
3 трек(и) не содержатся в базе AccurateRip
Некоторые треки не прошли проверку на точность
Конец отчёта
==== Контрольная сумма отчёта DA1BC9E87F397431688FF53E478FA89F8491476BF6CAA910127FFC815E2824D8 ====

Замер динамического диапазона

foobar2000 1.2.9 / Замер динамического диапазона (DR) 1.1.1
Дата отчёта: 2015-06-24 16:48:26
--------------------------------------------------------------------------------
Анализ: Academy of St. Martin in the Fields / High Tech Baroque
--------------------------------------------------------------------------------
DR Пики RMS Продолжительность трека
--------------------------------------------------------------------------------
DR14 -4.96 дБ -24.12 дБ 4:01 14-Concerto in G, RV 532 - Allegro
DR14 -13.30 дБ -32.47 дБ 3:29 15-Andante
DR14 -6.71 дБ -25.35 дБ 3:32 16-Allegro
--------------------------------------------------------------------------------
Количество треков: 3
Реальные значения DR: DR14
Частота: 44100 Гц
Каналов: 2
Разрядность: 16
Битрейт: 630 кбит/с
Кодек: FLAC
================================================================================
--------------------------------------------------------------------------------
Статистика для: 11-Adagio in G minor
Количество сэмплов: 17066700
Продолжительность: 6:27
--------------------------------------------------------------------------------
Левый Правый
Пики: -2.08 дБ --- -1.34 дБ
Средний RMS: -20.01 дБ --- -20.35 дБ
DR канала: 12.23 дБ --- 12.05 дБ
--------------------------------------------------------------------------------
Реальные значения DR: DR12
Частота: 44100 Гц
Каналов: 2
Разрядность: 16
Битрейт: 630 кбит/с
Кодек: FLAC
================================================================================
--------------------------------------------------------------------------------
Анализ: Chamber Orchestra of Europe / High Tech Baroque (1-3)
English Baroque Soloists / High Tech Baroque (4)
--------------------------------------------------------------------------------
DR Пики RMS Продолжительность трека
--------------------------------------------------------------------------------
DR13 -0.28 дБ -19.62 дБ 3:22 01-La primavera (Spring) from Le quattro stagioni (The Four Seasons) - Allegro
DR13 -13.72 дБ -33.13 дБ 3:01 02-Largo e pianissimo sempre
DR13 -2.21 дБ -20.03 дБ 4:04 03-Allegro, danza pastorale
DR13 -0.39 дБ -16.40 дБ 7:39 18-Fireworks Music: Overture
--------------------------------------------------------------------------------
Количество треков: 4
Реальные значения DR: DR13
Частота: 44100 Гц
Каналов: 2
Разрядность: 16
Битрейт: 630 кбит/с
Кодек: FLAC
================================================================================
--------------------------------------------------------------------------------
Анализ: I Musici / High Tech Baroque (1-8)
Michala Petri, David Petri, Hanne Petri / High Tech Baroque (9)
--------------------------------------------------------------------------------
DR Пики RMS Продолжительность трека
--------------------------------------------------------------------------------
DR12 -6.37 дБ -23.88 дБ 4:47 04-Canon
DR13 -0.20 дБ -18.91 дБ 4:55 05-Brandenburg Concerto No. 2 in F, BWV 1047 - Allegro
DR12 -8.95 дБ -25.16 дБ 3:30 06-Andante
DR13 -0.46 дБ -17.84 дБ 2:46 07-Allegro assai
DR12 -4.37 дБ -20.49 дБ 4:00 08-Concerto in C, Op. 3 No. 12 - Pastorale: Largo
DR11 -6.78 дБ -20.20 дБ 1:57 09-Largo
DR13 -4.27 дБ -20.31 дБ 2:32 10-Allegro
DR13 -9.68 дБ -27.62 дБ 4:08 13-String Quintet in E, Op. 13 No. 5 - Minuet
DR11 -4.75 дБ -20.17 дБ 1:20 17-Tambourin
--------------------------------------------------------------------------------
Количество треков: 9
Реальные значения DR: DR12
Частота: 44100 Гц
Каналов: 2
Разрядность: 16
Битрейт: 630 кбит/с
Кодек: FLAC
================================================================================
--------------------------------------------------------------------------------
Статистика для: 12-Water Music: 6. Allegro deciso
Количество сэмплов: 8511300
Продолжительность: 3:13
--------------------------------------------------------------------------------
Левый Правый
Пики: -2.78 дБ --- -0.97 дБ
Средний RMS: -19.81 дБ --- -19.62 дБ
DR канала: 12.04 дБ --- 13.66 дБ
--------------------------------------------------------------------------------
Реальные значения DR: DR13
Частота: 44100 Гц
Каналов: 2
Разрядность: 16
Битрейт: 630 кбит/с
Кодек: FLAC
================================================================================



Показать сообщения:    

Текущее время: 05-Дек 11:31

Часовой пояс: UTC + 3


Вы не можете начинать темы
Вы не можете отвечать на сообщения
Вы не можете редактировать свои сообщения
Вы не можете удалять свои сообщения
Вы не можете голосовать в опросах
Вы не можете прикреплять файлы к сообщениям
Вы не можете скачивать файлы