(Chamber, Piano quintet) Gabriel Faure - Quintettes avec Piano 1 & 2 / Габриэль Форе - Фортепианные квинтеты 1 & 2 (Eric Le Sage & Quatuor Ebene) - 2012, FLAC (tracks+.cue) lossless


 

[Цитировать]

Gabriel Faure - Quintettes avec Piano - Le Sage & Quatuor Ebène
Жанр: Chamber, Piano quintet
Страна-производитель диска: Germany
Год издания диска: 2012
Издатель (лейбл): Alpha
Номер по каталогу: 602
Дата записи: 2010
Аудиокодек: FLAC
Тип рипа: tracks+.cue
Битрейт аудио: lossless
Продолжительность: 66:15
Источник: скачано с
Наличие сканов в содержимом раздачи: да
Треклист:
Gabriel Fauré (1845-1924)
Quintette pour piano et quatuor à cordes No. 1 en Ré Mineur, op.89 (1891-1905) [31.39]
01 I. Molto moderato
02 II. Adagio
03 III. Allegretto moderato
Quintette pour piano et quatuor à cordes No. 2 en Ut Mineur, op.115 (1919-21) [34.20]
04 I. Allegro moderato
05 II. Allegro vivo
06 III. Andante moderato
07 IV. Allegro molto
Исполнители:
Éric Le Sage - piano
Quatuor Ébène:
Pierre Colombet - violon 1
Gabriel Le Magadure - violon 2
Mathieu Herzog - alto
Raphael Merlin - violoncelle
rec. Maison de la Culture de Grenoble, 25-28 October 2010

Лог создания рипа

Exact Audio Copy V1.0 beta 3 from 29. August 2011
EAC extraction logfile from 11. December 2013, 17:42
Éric Le Sage, Quatuor Ébène / Quintettes avec piano, op. 89 & 115
Used drive : HL-DT-STDVDRAM GSA-T20N Adapter: 0 ID: 0
Read mode : Secure
Utilize accurate stream : Yes
Defeat audio cache : Yes
Make use of C2 pointers : No
Read offset correction : 667
Overread into Lead-In and Lead-Out : No
Fill up missing offset samples with silence : Yes
Delete leading and trailing silent blocks : No
Null samples used in CRC calculations : Yes
Used interface : Native Win32 interface for Win NT & 2000
Gap handling : Appended to previous track
Used output format : User Defined Encoder
Selected bitrate : 1024 kBit/s
Quality : High
Add ID3 tag : No
Command line compressor : C:\Program Files (x86)\Exact Audio Copy\Flac\flac.exe
Additional command line options : -8 -V -T "ARTIST=%artist%" -T "TITLE=%title%" -T "ALBUM=%albumtitle%" -T "DATE=%year%" -T "TRACKNUMBER=%tracknr%" -T "GENRE=%genre%" -T "PERFORMER=%albuminterpret%" -T "COMPOSER=%composer%" %haslyrics%--tag-from-file=LYRICS="%lyricsfile%"%haslyrics% -T "ALBUMARTIST=%albumartist%" -T "DISCNUMBER=%cdnumber%" -T "TOTALDISCS=%totalcds%" -T "TOTALTRACKS=%numtracks%" -T "COMMENT=%comment%" %source% -o %dest%
TOC of the extracted CD
Track | Start | Length | Start sector | End sector
---------------------------------------------------------
1 | 0:00.00 | 12:04.67 | 0 | 54366
2 | 12:04.67 | 11:28.68 | 54367 | 106034
3 | 23:33.60 | 8:19.15 | 106035 | 143474
4 | 31:53.00 | 11:29.30 | 143475 | 195179
5 | 43:22.30 | 4:03.06 | 195180 | 213410
6 | 47:25.36 | 12:38.05 | 213411 | 270265
7 | 60:03.41 | 6:10.13 | 270266 | 298028
Track 1
Filename A:\Ripping\Fauré - Quintettes avec piano, op. 89 & 115 (2012) [FLAC]\01 Quintette pour piano et quatuor à cordes no. 1 en ré mineur, op. 89- I. Molto moderato.wav
Pre-gap length 0:00:02.00
Peak level 99.8 %
Extraction speed 2.9 X
Track quality 100.0 %
Test CRC 17516575
Copy CRC 17516575
Accurately ripped (confidence 8) [B7148623] (AR v2)
Copy OK
Track 2
Filename A:\Ripping\Fauré - Quintettes avec piano, op. 89 & 115 (2012) [FLAC]\02 Quintette pour piano et quatuor à cordes no. 1 en ré mineur, op. 89- II. Adagio.wav
Pre-gap length 0:00:05.49
Peak level 95.6 %
Extraction speed 3.3 X
Track quality 99.9 %
Test CRC 019BBD13
Copy CRC 019BBD13
Accurately ripped (confidence 8) [DE5FA7C6] (AR v2)
Copy OK
Track 3
Filename A:\Ripping\Fauré - Quintettes avec piano, op. 89 & 115 (2012) [FLAC]\03 Quintette pour piano et quatuor à cordes no. 1 en ré mineur, op. 89- III. Allegretto moderato.wav
Pre-gap length 0:00:02.52
Peak level 97.8 %
Extraction speed 3.6 X
Track quality 100.0 %
Test CRC 2242B8CD
Copy CRC 2242B8CD
Accurately ripped (confidence 8) [DDFDE5D3] (AR v2)
Copy OK
Track 4
Filename A:\Ripping\Fauré - Quintettes avec piano, op. 89 & 115 (2012) [FLAC]\04 Quintette pour piano et quatuor à cordes no. 2 en ut mineur, op. 115- I. Allegro moderato.wav
Pre-gap length 0:00:13.90
Peak level 100.0 %
Extraction speed 4.3 X
Track quality 100.0 %
Test CRC 19DDD752
Copy CRC 19DDD752
Accurately ripped (confidence 8) [D4DF576D] (AR v2)
Copy OK
Track 5
Filename A:\Ripping\Fauré - Quintettes avec piano, op. 89 & 115 (2012) [FLAC]\05 Quintette pour piano et quatuor à cordes no. 2 en ut mineur, op. 115- II. Allegro vivo.wav
Pre-gap length 0:00:04.06
Peak level 82.5 %
Extraction speed 4.2 X
Track quality 100.0 %
Test CRC DF0C1B11
Copy CRC DF0C1B11
Accurately ripped (confidence 8) [301996E6] (AR v2)
Copy OK
Track 6
Filename A:\Ripping\Fauré - Quintettes avec piano, op. 89 & 115 (2012) [FLAC]\06 Quintette pour piano et quatuor à cordes no. 2 en ut mineur, op. 115- III. Andante moderato.wav
Pre-gap length 0:00:05.41
Peak level 70.0 %
Extraction speed 4.9 X
Track quality 100.0 %
Test CRC 3777D5F1
Copy CRC 3777D5F1
Accurately ripped (confidence 8) [50302768] (AR v2)
Copy OK
Track 7
Filename A:\Ripping\Fauré - Quintettes avec piano, op. 89 & 115 (2012) [FLAC]\07 Quintette pour piano et quatuor à cordes no. 2 en ut mineur, op. 115- IV. Allegro molto.wav
Pre-gap length 0:00:02.94
Peak level 96.1 %
Extraction speed 4.5 X
Track quality 99.9 %
Test CRC DD4DA4D7
Copy CRC DD4DA4D7
Accurately ripped (confidence 8) [6F859902] (AR v2)
Copy OK
All tracks accurately ripped
No errors occurred
End of status report
---- CUETools DB Plugin V2.1.3
[CTDB TOCID: W1nzxaZgOFPLPbtWONfnsACbZnM-] found, Submit result: W1nzxaZgOFPLPbtWONfnsACbZnM- has been confirmed
[1759e250] (7/7) Accurately ripped
==== Log checksum 6CEE54B6180154D2B0C6A5708A644219E63D61312D838DCAB51A398641E23C1D ====

Содержание индексной карты (.CUE)

REM GENRE Classical
REM DATE 2012
REM DISCID 5B0F8507
REM COMMENT "ExactAudioCopy v1.0b3"
CATALOG 3760014196027
PERFORMER "Йric Le Sage, Quatuor Йbиne"
TITLE "Quintettes avec piano, op. 89 & 115"
FILE "01 Quintette pour piano et quatuor а cordes no. 1 en rй mineur, op. 89- I. Molto moderato.wav" WAVE
TRACK 01 AUDIO
TITLE "Quintette pour piano et quatuor а cordes no. 1 en rй mineur, op. 89: I. Molto..."
PERFORMER "Йric Le Sage, Quatuor Йbиne"
ISRC FR50X1060201
INDEX 01 00:00:00
TRACK 02 AUDIO
TITLE "Quintette pour piano et quatuor а cordes no. 1 en rй mineur, op. 89: II. Adagio"
PERFORMER "Йric Le Sage, Quatuor Йbиne"
ISRC FR50X1060202
INDEX 00 11:59:30
FILE "02 Quintette pour piano et quatuor а cordes no. 1 en rй mineur, op. 89- II. Adagio.wav" WAVE
INDEX 01 00:00:00
TRACK 03 AUDIO
TITLE "Quintette pour piano et quatuor а cordes no. 1 en rй mineur, op. 89: III. All..."
PERFORMER "Йric Le Sage, Quatuor Йbиne"
ISRC FR50X1060203
INDEX 00 11:26:29
FILE "03 Quintette pour piano et quatuor а cordes no. 1 en rй mineur, op. 89- III. Allegretto moderato.wav" WAVE
INDEX 01 00:00:00
TRACK 04 AUDIO
TITLE "Quintette pour piano et quatuor а cordes no. 2 en ut mineur, op. 115: I. Alle..."
PERFORMER "Йric Le Sage, Quatuor Йbиne"
ISRC FR50X1060204
INDEX 00 08:05:22
FILE "04 Quintette pour piano et quatuor а cordes no. 2 en ut mineur, op. 115- I. Allegro moderato.wav" WAVE
INDEX 01 00:00:00
TRACK 05 AUDIO
TITLE "Quintette pour piano et quatuor а cordes no. 2 en ut mineur, op. 115: II. All..."
PERFORMER "Йric Le Sage, Quatuor Йbиne"
ISRC FR50X1060205
INDEX 00 11:25:25
FILE "05 Quintette pour piano et quatuor а cordes no. 2 en ut mineur, op. 115- II. Allegro vivo.wav" WAVE
INDEX 01 00:00:00
TRACK 06 AUDIO
TITLE "Quintette pour piano et quatuor а cordes no. 2 en ut mineur, op. 115: III. An..."
PERFORMER "Йric Le Sage, Quatuor Йbиne"
ISRC FR50X1060206
INDEX 00 03:57:50
FILE "06 Quintette pour piano et quatuor а cordes no. 2 en ut mineur, op. 115- III. Andante moderato.wav" WAVE
INDEX 01 00:00:00
TRACK 07 AUDIO
TITLE "Quintette pour piano et quatuor а cordes no. 2 en ut mineur, op. 115: IV. All..."
PERFORMER "Йric Le Sage, Quatuor Йbиne"
ISRC FR50X1060207
INDEX 00 12:35:09
FILE "07 Quintette pour piano et quatuor а cordes no. 2 en ut mineur, op. 115- IV. Allegro molto.wav" WAVE
INDEX 01 00:00:00
Доп. информация: Два фортепианных квинтета Форе относятся к высшим достижениям композитора. В них он поднял камерно-инструментальную музыку до уровня симфонической, подвергнув классические образы Бетховена и романтиков импрессионистскому осмыслению, наполнив традиционные формы изысканным духом "Прекрасной эпохи" и напевными мелодиями, в которых сказалось воздействие французской символистской вокальной лирики и григорианских песнопений.
Пианист Эрик Ле Саж и музыканты квартета "Эбен", стремящиеся в своих трактовках к ясности и простоте, зарекомендавали себя как последователи типично французской утончённой исполнительской традиции.

О диске

Первый фортепианный квинтет (1891-1905), написанный Форе в зените творческой славы, отмечен мерным ритмическим движением музыки, полной душевного равновесия и спокойствия. Начало первой части квинтета подобно "Аве Марии" Баха-Гуно. Это прекрасный образец фореевского ровного пения - тихие перезвоны фортепианных арпеджио и унисонная мелодия струнных, уравновешенная, но переменчивая в оттенках эолийского, дорийского и лидийского ладов. Тень скорби вносит в эту краткую и умиротворённую мелодию надежды грустную ноту. Но тем динамичнее порыв к преодолению страдания. Побочная партия закрепляет интонации мажорной просветлённости и хроматической утончённости. В репризе полностью господствует главная тема, звучащая пылко и мужественно. Во второй части возникает потрясающая по красоте бесконечная мелодия, в среднем разделе приобретающая черты светлой воздушной мечтательности. Финал квинтета звучит как удивительная смесь "Оды к радости" из Девятой симфонии Бетховена и пьесы Рамо "Радостная". Только у Форе более богатая гармоническая шкала и иронично-затейливая полимелодическая ткань, полная подлинно юношеской гармонической свежести.
Второй фортепианный квинтет (1919-21) - лучшее сочинение позднего Форе. По свидетельству Шарля Кёклена, им восхищались все от Роже-Дюкаса до Жоржа Орика и Франсиса Пуленка. Начальная размашистая энергичная фраза навеяна аттической мелодией из оперы "Пенелопа". Этот величественный порыв умеряется грацией ритмических отклонений - уже в следующей фразе на первый план выступает григорианская мягкая плавность. Неторопливое развитие темы подготавливает построенную на интонациях Улисса побочную тему первой части, окутанную нежными переливами прозрачной фортепианной фактуры. В коде, объединяющей все темы, гармоническое сопровождение чарует гулом колокольного перезвона (излюбленный композитором образ радостного ликования). Во второй части - Скерцо - этот гул переходит в ослепительный каскад звучаний. Скерцо основано на свободном неожиданном противопоставлении и капризном контрапунктическом переплетении стремительных гамм, поющих гимн жизни. В иную атмосферу личных печальных размышлени переносит третья часть, начинающаяся с нежного Ламенто. Утешение несёт вторая, хоральная мелодия, заключение которой просветляет печаль. В финале движение приобретает характер вальса-каприса, в круговороте которого звучат темы предыдущих частей. Венцом всему развития является торжественно ликующий аккорд, напоминающий нам о концовке "Пенелопы" - гимне Зевсу.



Показать сообщения:    

Текущее время: 11-Дек 03:20

Часовой пояс: UTC + 3


Вы не можете начинать темы
Вы не можете отвечать на сообщения
Вы не можете редактировать свои сообщения
Вы не можете удалять свои сообщения
Вы не можете голосовать в опросах
Вы не можете прикреплять файлы к сообщениям
Вы не можете скачивать файлы