[TR24][OF] Wolfgang Amadeus Mozart: Violin Concertos Nos. 3, 4 & 5 - Arabella Steinbacher, Festival Strings Lucerne, Daniel Dodds - 2014 (Classical)


Статистика раздачи [Обновить пиров]
Размер:  1.35 GB   |    Зарегистрирован:  10 месяцев   |    Скачан:  0 раз

Полного источника не было: Никогда

Личеров:  1  [  0 KB/s  ]   Подробная статистика пиров
 
   
 
 
 

[Цитировать]

Mozart: Violin Concertos Nos. 3, 4 & 5
Arabella Steinbacher
Festival Strings Lucerne · Daniel Dodds
- Год издания: 2014
Жанр: Classical
Издатель (лейбл): PentaTone
Продолжительность: 01:18:08
Наличие сканов: Sleeve, Digital Booklet- -
Wolfgang Amadeus Mozart (1756-1791)
Violin Concerto No. 3 in G Major, K. 216
01. I. Allegro (9:20)
02. II. Adagio (8:02)
03. III. Rondeau: Allegro (6:23)
Violin Concerto No. 4 in D Major, K. 218
04. I. Allegro (9:32)
05. II. Andante cantabile (7:42)
06. III. Rondo: Andante grazioso (7:23)
Violin Concerto No. 5 in A Major, K. 219, 'Turkish'
07. I. Allegro aperto - Adagio - Allegro aperto (10:37)
08. II. Adagio (9:48)
09. III. Tempo di menuetto (9:21)
-
Контейнер: FLAC (*.flac)
Тип рипа: tracks
Разрядность: 24bit / 96kHz
Количество каналов: 2.0
-О релизе
Distinctive
Violinist Arabella Steinbacher studied her first Mozart Violin Concerto in G major at the age of eight. The legendary pianist Arthur Schnabel mentioned that the piano sonatas of Mozart are too easy for children yet too difficult for adults. In Steinbacher’s words: In Mozart one must always make sure that it's powerful, but at the same time never sounds aggressive and that the sound always remains beautifully pure and almost angelic.
And since then the piece has become the underlying theme throughout her career. She played the piece during many important moments of her life. It was also the piece that got Arabella accepted as the youngest students of Ana Chumachenko when she was nine. Yet it never came to a CD recording while listeners regularly ask for it.
In making the recording Ms Steinbacher said,” I’m glad it can finally be recorded now. Mozart connects me to my childhood and it has opened many doors.”listen’.
Arabella Steinbacher, violin
Festival Strings Lucerne
Daniel Dodds, conductor
Recorded: Kirche Oberstrass in Zurich, Switzerland in September 2013

ОтчётыДинамический диапазон

foobar2000 1.3.8 / Dynamic Range Meter 1.1.1
log date: 2015-06-25 01:44:28
--------------------------------------------------------------------------------
Analyzed: Arabella Steinbacher, Festival Strings Lucerne, Daniel Dodds / Mozart: Violin Concertos Nos. 3, 4 & 5
--------------------------------------------------------------------------------
DR Peak RMS Duration Track
--------------------------------------------------------------------------------
DR14 -3.82 dB -23.34 dB 9:20 01-Violin Concerto No. 3 in G Major, K. 216: I. Allegro
DR13 -8.66 dB -28.03 dB 8:02 02-Violin Concerto No. 3 in G Major, K. 216: II. Adagio
DR14 -4.47 dB -25.22 dB 6:23 03-Violin Concerto No. 3 in G Major, K. 216: III. Rondeau: Allegro
DR14 -3.85 dB -24.18 dB 9:32 04-Violin Concerto No. 4 in D Major, K. 218: I. Allegro
DR14 -6.30 dB -26.25 dB 7:42 05-Violin Concerto No. 4 in D Major, K. 218: II. Andante cantabile
DR15 -4.88 dB -25.23 dB 7:23 06-Violin Concerto No. 4 in D Major, K. 218: III. Rondo: Andante grazioso
DR16 -2.81 dB -23.79 dB 10:37 07-Violin Concerto No. 5 in A Major, K. 219, 'Turkish': I. Allegro aperto - Adagio - Allegro aperto
DR14 -5.93 dB -25.83 dB 9:48 08-Violin Concerto No. 5 in A Major, K. 219, 'Turkish': II. Adagio
DR15 -1.92 dB -21.62 dB 9:21 09-Violin Concerto No. 5 in A Major, K. 219, 'Turkish': III. Tempo di menuetto
--------------------------------------------------------------------------------
Number of tracks: 9
Official DR value: DR14
Samplerate: 96000 Hz
Channels: 2
Bits per sample: 24
Bitrate: 2515 kbps
Codec: FLAC
================================================================================

Скриншот спектра частот

Доп. информация

При скачивании, если необходимо, переименуйте папку, в которой будет находиться альбомБольшая просьба к скачавшим поддерживать раздачу! Помогайте другим, ведь вам тоже может понадобиться помощь!Не забываем говорить "Спасибо"!Комментарии приветствуются!
Arabella Steinbacher Hi-Res
[teatrix.ru].t21568.torrent 
Торрент: Зарегистрирован [ 2016-03-20 12:36 ] · 4DFE5A3A6165669141A0ECFB5E76A305A1B32ABE

Скачать .torrent

Скачать

15 KB

Статус: проверено
Скачан: 0 раз
Размер: 1.35 GB
terms.php



Быстрый ответ

Имя:

      
Для отправки сообщений необходимо включить JavaScript
Показать сообщения:    

Текущее время: 20-Янв 16:55

Часовой пояс: UTC + 3


Вы можете начинать темы
Вы можете отвечать на сообщения
Вы не можете редактировать свои сообщения
Вы не можете удалять свои сообщения
Вы не можете голосовать в опросах
Вы не можете прикреплять файлы к сообщениям
Вы можете скачивать файлы