(Opera-Ballet) Roussel - Padmavati (Horne, Gedda, van Dam, Berbie - Orchestre du Capitole de Toulouse, Plasson) - 1987, APE (image+.cue) lossless


 

[Цитировать]

Albert Roussel - Padmâvatî, Op. 18
Жанр: Opera-Ballet
Страна-производитель диска: France
Год издания диска: 1987
Издатель (лейбл): EMI
Номер по каталогу: 7478918
Дата записи: 1983
Аудиокодек: APE
Тип рипа: image+.cue
Битрейт аудио: lossless
Продолжительность: 53'15+49'58
Источник: скачано с
Наличие сканов в содержимом раздачи: да
Треклист:

CD1

1. Act I: Prélude
2. Act I, Scene I: Le Sultan des Mogols a passé la troisième porte
3. Act I, Scene II: A, A!... Souverain d'un peuple florissant
4. Act I, Scene II: War Dance
5. Act I, Scene II: Dance of the Slave Girls
6. Act I, Scene II: Ce sont les femmes du palais
7. Act I, Scene III: Elle mont au ciel où rêve le printemps
8. Act I, Scene III: Aux armes...Il est trop tard

CD2

1. Act II : Prélude
2. Act II , Scene I: Om! Siva...Siva, laisse ma voix
3. Act II , Scene II: Padmâvatî
4. Act II , Scene III: Ah!... Ô mes soeurs fidèles
5. Act II , Scene III: Pantomime
6. Act II , Scene III: Dance and pantomime
7. Act II , Scene III: Dans la nuit flamboyante, la nuit conduite par la mort
Исполнители:
Albert Roussel - Padmâvatî, Op. 18
Opéra-Ballet in 2 Acts
After a poeme of Louis Laloy
Padmâvatî - Marilyn Horne, contralto
Ratan-Sen - Nicolai Gedda, tenor
Alaouddin - José van Dam, baryton
Nakamti - Jane Berbié, mezzo-soprano
Brahmin - Charles Burles, tenor
Gora - Marc Vento, baryton
Badal - Laurence Dale, tenor
Orféon Donostiarra
Orchestre du Capitole de Toulouse
Michel Plasson, conductor

Лог создания рипа

CD1

Exact Audio Copy V1.0 beta 6 from 9. April 2015
EAC extraction logfile from 21. June 2015, 17:11
Roussel / Padmavati CD1
Used drive : TSSTcorpCDDVDW SE-208AB Adapter: 1 ID: 2
Read mode : Secure
Utilize accurate stream : Yes
Defeat audio cache : Yes
Make use of C2 pointers : No
Read offset correction : 6
Overread into Lead-In and Lead-Out : No
Fill up missing offset samples with silence : Yes
Delete leading and trailing silent blocks : No
Null samples used in CRC calculations : Yes
Used interface : Native Win32 interface for Win NT & 2000
Used output format : Monkey's Audio Lossless Encoder
Selected bitrate : High Lossless Compression
Quality : High
Add ID3 tag : Yes
Command line compressor : C:\Program Files (x86)\Exact Audio Copy\MAC\MAC.exe
TOC of the extracted CD
Track | Start | Length | Start sector | End sector
---------------------------------------------------------
1 | 0:00.00 | 5:22.20 | 0 | 24169
2 | 5:22.20 | 5:07.60 | 24170 | 47254
3 | 10:30.05 | 6:08.73 | 47255 | 74927
4 | 16:39.03 | 4:09.35 | 74928 | 93637
5 | 20:48.38 | 4:02.27 | 93638 | 111814
6 | 24:50.65 | 11:27.25 | 111815 | 163364
7 | 36:18.15 | 10:37.10 | 163365 | 211149
8 | 46:55.25 | 6:19.68 | 211150 | 239642
Range status and errors
Selected range
Filename D:\EAC\Roussel - Padmavati CD1.wav
Peak level 97.3 %
Extraction speed 2.1 X
Range quality 100.0 %
Test CRC 11B31C49
Copy CRC 11B31C49
Copy OK
No errors occurred
AccurateRip summary
Track 1 cannot be verified as accurate (confidence 4) [BCBF02B2], AccurateRip returned [88A4F7BB] (AR v2)
Track 2 cannot be verified as accurate (confidence 4) [8A1B15D7], AccurateRip returned [7247279A] (AR v2)
Track 3 cannot be verified as accurate (confidence 4) [C58832CE], AccurateRip returned [8D4FDD9D] (AR v2)
Track 4 cannot be verified as accurate (confidence 4) [8F8DA911], AccurateRip returned [4F629B0B] (AR v2)
Track 5 cannot be verified as accurate (confidence 4) [E46CF67E], AccurateRip returned [27A396E0] (AR v2)
Track 6 cannot be verified as accurate (confidence 4) [E417E30D], AccurateRip returned [FCF3300B] (AR v2)
Track 7 cannot be verified as accurate (confidence 4) [38F24F8D], AccurateRip returned [E083D625] (AR v2)
Track 8 cannot be verified as accurate (confidence 4) [B8C5F302], AccurateRip returned [4C8AF2A8] (AR v2)
No tracks could be verified as accurate
You may have a different pressing from the one(s) in the database
End of status report
---- CUETools DB Plugin V2.1.6
[CTDB TOCID: IL_YVTiwkyvqK5skKEkzAwiTOBc-] found
Submit result: IL_YVTiwkyvqK5skKEkzAwiTOBc- has been confirmed
Track | CTDB Status
1 | (2/2) Accurately ripped
2 | (2/2) Accurately ripped
3 | (2/2) Accurately ripped
4 | (2/2) Accurately ripped
5 | (2/2) Accurately ripped
6 | (2/2) Accurately ripped
7 | (2/2) Accurately ripped
8 | (2/2) Accurately ripped
==== Log checksum D3E9B1079F7CBC17D13D3DA195C457F85E36B7ADCA5C45FB200ED07BD5451A0A ====

CD2

Exact Audio Copy V1.0 beta 6 from 9. April 2015
EAC extraction logfile from 21. June 2015, 16:56
Roussel / Padmavati CD2
Used drive : TS8XDVDSTRANSCEND Adapter: 1 ID: 1
Read mode : Secure
Utilize accurate stream : Yes
Defeat audio cache : Yes
Make use of C2 pointers : No
Read offset correction : 6
Overread into Lead-In and Lead-Out : No
Fill up missing offset samples with silence : Yes
Delete leading and trailing silent blocks : No
Null samples used in CRC calculations : Yes
Used interface : Native Win32 interface for Win NT & 2000
Used output format : Monkey's Audio Lossless Encoder
Selected bitrate : High Lossless Compression
Quality : High
Add ID3 tag : Yes
Command line compressor : C:\Program Files (x86)\Exact Audio Copy\MAC\MAC.exe
TOC of the extracted CD
Track | Start | Length | Start sector | End sector
---------------------------------------------------------
1 | 0:00.00 | 2:22.62 | 0 | 10711
2 | 2:22.62 | 8:47.30 | 10712 | 50266
3 | 11:10.17 | 10:48.55 | 50267 | 98921
4 | 21:58.72 | 7:33.68 | 98922 | 132964
5 | 29:32.65 | 4:12.62 | 132965 | 151926
6 | 33:45.52 | 4:06.23 | 151927 | 170399
7 | 37:52.00 | 12:06.10 | 170400 | 224859
Range status and errors
Selected range
Filename D:\EAC\Roussel - Padmavati CD2.wav
Peak level 100.0 %
Extraction speed 2.0 X
Range quality 100.0 %
Test CRC F42B8A14
Copy CRC F42B8A14
Copy OK
No errors occurred
AccurateRip summary
Track 1 cannot be verified as accurate (confidence 8) [FF003195], AccurateRip returned [59F8347F] (AR v2)
Track 2 cannot be verified as accurate (confidence 8) [7CB11F06], AccurateRip returned [48137544] (AR v2)
Track 3 cannot be verified as accurate (confidence 8) [667A9110], AccurateRip returned [987F42D0] (AR v2)
Track 4 cannot be verified as accurate (confidence 8) [80306472], AccurateRip returned [C8CEAFE1] (AR v2)
Track 5 cannot be verified as accurate (confidence 8) [5B4C6D38], AccurateRip returned [F5D15D2A] (AR v2)
Track 6 cannot be verified as accurate (confidence 8) [D51E8131], AccurateRip returned [019236B4] (AR v2)
Track 7 cannot be verified as accurate (confidence 8) [1C2DAAF1], AccurateRip returned [94E8E21B] (AR v2)
No tracks could be verified as accurate
You may have a different pressing from the one(s) in the database
End of status report
---- CUETools DB Plugin V2.1.6
[CTDB TOCID: 3Bx09TFLnZN8DT7aNq24r1fnM0c-] found
Submit result: unrecognized or virtual drive
Track | CTDB Status
1 | (2/2) Accurately ripped
2 | (2/2) Accurately ripped
3 | (2/2) Accurately ripped
4 | (2/2) Accurately ripped
5 | (2/2) Accurately ripped
6 | (1/2) Accurately ripped, or (1/2) differs in 247 samples @02:33:71,02:34:27-02:34:28,02:34:59,02:34:74-02:35:00
7 | (1/2) Accurately ripped, or (1/2) differs in 1 samples @12:05:59
==== Log checksum 8543E17CF986F0AFE2F2BC6143FB0DFC9F9E0B63A66639A0FD2F25CF7EEB6E38 ====

Содержание индексной карты (.CUE)

CD1

REM GENRE Opera
REM DATE 1983
REM DISCID 4D0C7B08
REM COMMENT "ExactAudioCopy v1.0b6"
PERFORMER "Roussel"
TITLE "Padmavati CD1"
FILE "Roussel - Padmavati CD1.ape" WAVE
TRACK 01 AUDIO
TITLE "Acte 1: Prélude"
PERFORMER "Michel Plasson - Orch. du Capitole de Toulouse; Horne, Gedda, Van Dam"
INDEX 01 00:00:00
TRACK 02 AUDIO
TITLE "Le Sultan des Mogols a passé la troisième porte"
PERFORMER "Michel Plasson - Orch. du Capitole de Toulouse; Horne, Gedda, Van Dam"
INDEX 01 05:22:20
TRACK 03 AUDIO
TITLE "A, A!... Souverain d'un peuple florissant"
PERFORMER "Michel Plasson - Orch. du Capitole de Toulouse; Horne, Gedda, Van Dam"
INDEX 01 10:30:05
TRACK 04 AUDIO
TITLE "Danse guerrière"
PERFORMER "Michel Plasson - Orch. du Capitole de Toulouse; Horne, Gedda, Van Dam"
INDEX 01 16:39:03
TRACK 05 AUDIO
TITLE "Danse des femmes esclaves"
PERFORMER "Michel Plasson - Orch. du Capitole de Toulouse; Horne, Gedda, Van Dam"
INDEX 01 20:48:38
TRACK 06 AUDIO
TITLE "Entrée et danse des femmes au palais: Ce sont les femmes du palais"
PERFORMER "Michel Plasson - Orch. du Capitole de Toulouse; Horne, Gedda, Van Dam"
INDEX 01 24:50:65
TRACK 07 AUDIO
TITLE "Elle monte au ciel où rêve le printemps"
PERFORMER "Michel Plasson - Orch. du Capitole de Toulouse; Horne, Gedda, Van Dam"
INDEX 01 36:18:15
TRACK 08 AUDIO
TITLE "Aux armes... Il est trop tard"
PERFORMER "Michel Plasson - Orch. du Capitole de Toulouse; Horne, Gedda, Van Dam"
INDEX 01 46:55:25

CD2

REM GENRE Opera
REM DATE 1983
REM DISCID 4D0BB607
REM COMMENT "ExactAudioCopy v1.0b6"
PERFORMER "Roussel"
TITLE "Padmavati CD2"
FILE "Roussel - Padmavati CD2.ape" WAVE
TRACK 01 AUDIO
TITLE "Acte 2: Prélude"
PERFORMER "Michel Plasson - Orch. du Capitole de Toulouse; Horne, Gedda, Van Dam"
INDEX 01 00:00:00
TRACK 02 AUDIO
TITLE "Om! Siva... Siva, laisse ma voix..."
PERFORMER "Michel Plasson - Orch. du Capitole de Toulouse; Horne, Gedda, Van Dam"
INDEX 01 02:22:62
TRACK 03 AUDIO
TITLE "Padmâvatî!"
PERFORMER "Michel Plasson - Orch. du Capitole de Toulouse; Horne, Gedda, Van Dam"
INDEX 01 11:10:17
TRACK 04 AUDIO
TITLE "Ah!... Ô mes soeurs fidèles..."
PERFORMER "Michel Plasson - Orch. du Capitole de Toulouse; Horne, Gedda, Van Dam"
INDEX 01 21:58:72
TRACK 05 AUDIO
TITLE "Pantomime"
PERFORMER "Michel Plasson - Orch. du Capitole de Toulouse; Horne, Gedda, Van Dam"
INDEX 01 29:32:65
TRACK 06 AUDIO
TITLE "Danse et Pantomime"
PERFORMER "Michel Plasson - Orch. du Capitole de Toulouse; Horne, Gedda, Van Dam"
INDEX 01 33:45:52
TRACK 07 AUDIO
TITLE "Cérémonie funèbre: Dans la nuit flamboyante, la nuit conduite par la mort!"
PERFORMER "Michel Plasson - Orch. du Capitole de Toulouse; Horne, Gedda, Van Dam"
INDEX 01 37:52:00

Лог проверки качества

CD1

[CUETools log; Date: 21-6-2015 17:12:46; Version: 2.1.4]
[CTDB TOCID: IL_YVTiwkyvqK5skKEkzAwiTOBc-] found.
Track | CTDB Status
1 | (3/3) Accurately ripped
2 | (3/3) Accurately ripped
3 | (3/3) Accurately ripped
4 | (3/3) Accurately ripped
5 | (3/3) Accurately ripped
6 | (3/3) Accurately ripped
7 | (3/3) Accurately ripped
8 | (3/3) Accurately ripped
[AccurateRip ID: 000ebd4c-0064fd48-4d0c7b08] found.
Track [ CRC | V2 ] Status
01 [58a974a0|bcbf02b2] (0+0/4) No match
02 [d3f4980a|8a1b15d7] (0+0/4) No match
03 [50c53b87|c58832ce] (0+0/4) No match
04 [2c4baf48|8f8da911] (0+0/4) No match
05 [c851568b|e46cf67e] (0+0/4) No match
06 [abf0fed7|e417e30d] (0+0/4) No match
07 [9b026c19|38f24f8d] (0+0/4) No match
08 [2cd51292|b8c5f302] (0+0/4) No match
Offsetted by 6:
01 [2214c15d] (0/4) No match (V2 was not tested)
02 [b9b33ec8] (0/4) No match (V2 was not tested)
03 [15b01ca4] (0/4) No match (V2 was not tested)
04 [edf1c679] (0/4) No match (V2 was not tested)
05 [0d4ce74f] (0/4) No match (V2 was not tested)
06 [c9e0bc42] (0/4) No match (V2 was not tested)
07 [47420602] (0/4) No match (V2 was not tested)
08 [c35452dd] (0/4) No match (V2 was not tested)
Track Peak [ CRC32 ] [W/O NULL] [ LOG ]
-- 97,3 [11B31C49] [B48DD713] CRC32
01 73,7 [319C33CC] [5762CED5]
02 97,3 [6BA184AA] [0BD18193]
03 77,2 [6458DF03] [95F3E811]
04 71,2 [175F3540] [6B4CB673]
05 46,9 [E599BC97] [23A2D84F]
06 79,6 [2D303F45] [FFA0341A]
07 75,6 [EB49DFAC] [B75B588D]
08 80,1 [7F56D049] [03C6A0BF]

CD2

[CUETools log; Date: 21-6-2015 17:13:12; Version: 2.1.4]
[CTDB TOCID: 3Bx09TFLnZN8DT7aNq24r1fnM0c-] found.
Track | CTDB Status
1 | (2/2) Accurately ripped
2 | (2/2) Accurately ripped
3 | (2/2) Accurately ripped
4 | (2/2) Accurately ripped
5 | (2/2) Accurately ripped
6 | (1/2) Accurately ripped, or (1/2) differs in 247 samples @02:33:71,02:34:27-02:34:28,02:34:59,02:34:74-02:35:00
7 | (1/2) Accurately ripped, or (1/2) differs in 1 samples @12:05:59
[AccurateRip ID: 000cd175-004e5e6d-4d0bb607] found.
Track [ CRC | V2 ] Status
01 [2c57c092|ff003195] (0+0/8) No match
02 [f229faff|7cb11f06] (0+0/8) No match
03 [715e6106|667a9110] (0+0/8) No match
04 [b39f4688|80306472] (0+0/8) No match
05 [09ef69c8|5b4c6d38] (0+0/8) No match
06 [e055e465|d51e8131] (0+0/8) No match
07 [9d04a8e4|1c2daaf1] (0+0/8) No match
Offsetted by 6:
01 [86804b52] (0/8) No match (V2 was not tested)
02 [b9162b85] (0/8) No match (V2 was not tested)
03 [a8304e72] (0/8) No match (V2 was not tested)
04 [ff789aa9] (0/8) No match (V2 was not tested)
05 [a250ae9d] (0/8) No match (V2 was not tested)
06 [0ac28ac8] (0/8) No match (V2 was not tested)
07 [1b42a478] (0/8) No match (V2 was not tested)
Track Peak [ CRC32 ] [W/O NULL] [ LOG ]
-- 100,0 [F42B8A14] [1DBE3474] CRC32
01 51,6 [4B5658B8] [4D3F0E56]
02 66,7 [C3FD1DA8] [EBF732CF]
03 93,3 [709DBDE6] [8DAA32A9]
04 29,4 [36410252] [5EE03DF4]
05 63,8 [569E7227] [6E4D48BC]
06 100,0 [14C4A6A3] [5A3C6A67]
07 76,3 [89DED6C7] [793CDB2F]
Доп. информация:
This strange work, set in 13th-century India, centers on the Princely ruler Ratan-Sen and his beautiful wife, Padmavati.
When the cruel Mogul ruler of Delhi, Alaouddin, arrives with his army, he sees Padmavati, and when she unveils at his request, he falls in love with her and demands that she be his.
Ratan-Sen refuses and is killed.
Rather than giving in to Alaouddin, Padmavati joins her husband on his funeral pyre.
Roussel's score is exotic and colorful and makes great use of a large orchestra and chorus; indeed there is as much purely instrumental and choral music as there is solo singing in this work (it's almost constructed like one of Rameau's opera-ballets), and both orchestra and chorus are superb.
Nicolai Gedda is the benevolent Ratan-Sen, and he sings with authority and sensitivity; Marilyn Horne is the warm-timbred, alluring Padmavati, and José van Dam menaces as Alaouddin.
This is a fascinating work, in a splendid performance.



Показать сообщения:    

Текущее время: 10-Дек 09:57

Часовой пояс: UTC + 3


Вы не можете начинать темы
Вы не можете отвечать на сообщения
Вы не можете редактировать свои сообщения
Вы не можете удалять свои сообщения
Вы не можете голосовать в опросах
Вы не можете прикреплять файлы к сообщениям
Вы не можете скачивать файлы