(Classical) Сарасате – Сочинения с фортепиано III / Sarasate – Music for violin & piano 3: Caprice sur «Mireille» etc. (Tianwa Yang & Markus Hadulla) - 2012, FLAC (image+.cue) lossless


 

[Цитировать]

Сарасате – Сочинения с фортепиано III / Sarasate – Music for violin & piano 3: Caprice sur «Mireille» etc. (Tianwa Yang & Markus Hadulla)
Жанр: Classical
Страна-производитель диска: Германия
Год издания диска: 2012
Издатель (лейбл): Naxos
Номер по каталогу: 8.570893
Дата записи: 10 — 13 сентября 2007 г. (1 — 7, 9 — 10, 12, 14); 1 — 6 декабря 2010 г. (8, 11, 13), Зандхаузен.
Аудиокодек: FLAC
Тип рипа: image+.cue
Битрейт аудио: lossless
Продолжительность: 01:18:55
Источник: konst на Погружении
Наличие сканов в содержимом раздачи: да
Треклист:-Пабло Мартин Мелитон де Сарасате-и-Наваскес (1844— 1908).
Сочинения для скрипки с фортепиано, часть III.-Каприччио на темы из «Мирейль» Гуно, op. 6 (1866).
11. [Увертюра.] —
(12.) — [Песня про Магали (№ 4a).] —
(13.) — [Интродукция I действия (№ 1)] [09:20].
«Шотландские напевы» (Airs écossais) для скрипки с оркестром, op. 34 (1891), оригинальная версия с фортепиано.
12. Lent. —
(15.) — Grazioso non troppo vivo. — Più presto. — Cadenza. —
(16.) — Très lent. —
(17.) — Moderato. — Più presto [08:15].
08. Фантазия-каприччио (Fantaisie-Caprice) a-moll (1862; опубл. 1981) [09:05].
13. «Чилийские птицы» (Los pájaros de Chile), каприччио D-dur (1871; опубл. 2009) [06:28].
06. «Размышление» (Rêverie) fis-moll, op. 4 (опубл. 1866) [04:36].
10. «Секрет» (Confidence), песня без слов D-dur, op. 7 (опубл. 1867) [03:54].
14. «Прощание» (Les Adieux), романс (mélodie) B-dur, op. 9 (опубл. 1867?). Andante. — Più presto. — Tempo I [04:36].
03. «Андалусийская серенада» (Sérénade andalouse) a-moll, op. 10 (опубл. 1867?) [04:51].
05. «Сон» (Le Sommeil), романс (mélodie) g-moll, op. 11 (опубл. 1867). Adagio [04:40].
09. Молитва и колыбельная (Prière et berceuse) D-dur, op. 17 (опубл. 1870). Молитва. Andante. — Колыбельная. Moderato presto [04:27].
01. Болеро (Boléro) A-dur, op. 30 (опубл. 1885). Allegro moderato [05:31].
04. «Прощайте, мои горы!» (Adiós montañas mías), сортскио Х. Ларреглы A-dur, op. 37 (опубл. 1895) [02:15].
02. Сортсико Ипаррагирре (Zortzico de Iparraguirre) [«Дерево Герники»] G-dur, op. 39 (1896, опубл. 1898) [01:53].
07. Интродукция и фанданго с вариациями (Introduction et fandango varié) d-moll, op. 40 (опубл. 1898) [08:00].-Исполнители:
Tianwa Yang (скрипка).
Markus Hadulla (фортепиано).-

Лог создания рипа

Exact Audio Copy V0.99 prebeta 5 from 4. May 2009
Отчёт EAC об извлечении, выполненном 31. декабря 2012, 17:15
Tianwa Yang (violin), Markus Hadulla (piano) / Sarasate - Music for Violin and Piano - 3
Дисковод: ASUS CB-5216A Adapter: 1 ID: 1
Режим чтения : Достоверность
Использование точного потока : Да
Отключение кэша аудио : Да
Использование указателей C2 : Нет
Коррекция смещения при чтении : 6
Способность читать области Lead-in и Lead-out : Да
Заполнение пропущенных сэмплов тишиной : Да
Удаление блоков с тишиной в начале и конце : Нет
При вычислениях CRC использовались нулевые сэмплы : Да
Интерфейс : Установленный внешний ASPI-интерфейс
Выходной формат : Пользовательский кодировщик
Выбранный битрейт : 768 kBit/s
Качество : Высокий
Добавление ID3-тэга : Нет
Утилита сжатия : C:\Program Files\Exact Audio Copy\FLAC\FLAC.EXE
Дополнительные параметры : -6 -V -T "ARTIST=%a" -T "TITLE=%t" -T "ALBUM=%g" -T "DATE=%y" -T "TRACKNUMBER=%n" -T "GENRE=%m" -T "COMMENT=%e" %s -o %d
TOC извлечённого CD
Трек | Старт | Длительность | Начальный сектор | Конечный сектор
---------------------------------------------------------------------
1 | 0:00.00 | 5:34.56 | 0 | 25105
2 | 5:34.56 | 1:56.53 | 25106 | 33858
3 | 7:31.34 | 4:53.29 | 33859 | 55862
4 | 12:24.63 | 2:20.60 | 55863 | 66422
5 | 14:45.48 | 4:52.01 | 66423 | 88323
6 | 19:37.49 | 4:47.44 | 88324 | 109892
7 | 24:25.18 | 8:06.27 | 109893 | 146369
8 | 32:31.45 | 9:07.25 | 146370 | 187419
9 | 41:38.70 | 4:32.26 | 187420 | 207845
10 | 46:11.21 | 3:55.39 | 207846 | 225509
11 | 50:06.60 | 9:21.38 | 225510 | 267622
12 | 59:28.23 | 8:17.64 | 267623 | 304961
13 | 67:46.12 | 6:30.45 | 304962 | 334256
14 | 74:16.57 | 4:36.18 | 334257 | 354974
Характеристики диапазона извлечения и сообщения об ошибках
Выбранный диапазон
Имя файла C:\TEMP\Sarasate - Music for Violin and Piano - 3.wav
Подозрительная позиция 1:18:52
Пиковый уровень 87.8 %
Качество диапазона 99.9 %
CRC копии FC3F7FF2
Копирование завершено
Были ошибки
Конец отчёта

Содержание индексной карты (.CUE)

REM GENRE Classical
REM DATE 2012
REM DISCID D3127D0E
REM COMMENT "ExactAudioCopy v0.99pb5"
PERFORMER "Tianwa Yang & Markus Hadulla"
TITLE "Sarasate – Music for violin & piano, vol. 3 – Tianwa Yang & Markus Hadulla"
FILE "Sarasate – Music for violin & piano, vol. 3 – Tianwa Yang & Markus Hadulla.flac" WAVE
TRACK 01 AUDIO
TITLE "Bolero, Op. 30"
PERFORMER "Tianwa Yang & Markus Hadulla"
INDEX 01 00:00:00
TRACK 02 AUDIO
TITLE "Zortzico d'Iparraguirre, Op. 39"
PERFORMER "Tianwa Yang & Markus Hadulla"
INDEX 00 05:31:06
INDEX 01 05:34:56
TRACK 03 AUDIO
TITLE "Serenade andalouse, Op. 10"
PERFORMER "Tianwa Yang & Markus Hadulla"
INDEX 00 07:27:65
INDEX 01 07:31:34
TRACK 04 AUDIO
TITLE "Adios montanas mias - Danse espagnole, Op. 37"
PERFORMER "Tianwa Yang & Markus Hadulla"
INDEX 00 12:22:34
INDEX 01 12:24:63
TRACK 05 AUDIO
TITLE "Le Sommeil, Op. 11"
PERFORMER "Tianwa Yang & Markus Hadulla"
INDEX 00 14:40:01
INDEX 01 14:45:48
TRACK 06 AUDIO
TITLE "Reverie, Op. 4"
PERFORMER "Tianwa Yang & Markus Hadulla"
INDEX 00 19:25:74
INDEX 01 19:37:49
TRACK 07 AUDIO
TITLE "Introduction et fandango, Op. 40"
PERFORMER "Tianwa Yang & Markus Hadulla"
INDEX 00 24:13:42
INDEX 01 24:25:18
TRACK 08 AUDIO
TITLE "Fantaisie-Caprice"
PERFORMER "Tianwa Yang & Markus Hadulla"
INDEX 00 32:25:54
INDEX 01 32:31:45
TRACK 09 AUDIO
TITLE "Priere et berceuse, Op. 17"
PERFORMER "Tianwa Yang & Markus Hadulla"
INDEX 00 41:36:28
INDEX 01 41:38:70
TRACK 10 AUDIO
TITLE "Confidences - Romance sans paroles, Op. 7"
PERFORMER "Tianwa Yang & Markus Hadulla"
INDEX 00 46:06:02
INDEX 01 46:11:21
TRACK 11 AUDIO
TITLE "Caprice sur Mireille de Gounod, Op. 6"
PERFORMER "Tianwa Yang & Markus Hadulla"
INDEX 00 50:04:74
INDEX 01 50:06:60
TRACK 12 AUDIO
TITLE "Airs ecossais, Op. 34"
PERFORMER "Tianwa Yang & Markus Hadulla"
INDEX 00 59:26:24
INDEX 01 59:28:23
TRACK 13 AUDIO
TITLE "Los pajaros de Chile"
PERFORMER "Tianwa Yang & Markus Hadulla"
INDEX 00 67:42:65
INDEX 01 67:46:12
TRACK 14 AUDIO
TITLE "Les Adieux, Op. 9"
PERFORMER "Tianwa Yang & Markus Hadulla"
INDEX 00 74:14:08
INDEX 01 74:16:57

Вариант индексной карты (.CUE) с исправленными зазорами

REM GENRE Classical
REM DATE 2012
REM DISCID D3127D0E
REM COMMENT "ExactAudioCopy v0.99pb5"
PERFORMER "Tianwa Yang & Markus Hadulla"
TITLE "Sarasate – Music for violin & piano, vol. 3 – Tianwa Yang & Markus Hadulla"
FILE "Sarasate – Music for violin & piano, vol. 3 – Tianwa Yang & Markus Hadulla.flac" WAVE
TRACK 01 AUDIO
TITLE "Bolero, Op. 30"
PERFORMER "Tianwa Yang & Markus Hadulla"
INDEX 00 00:00:00
INDEX 01 00:01:37
TRACK 02 AUDIO
TITLE "Zortzico d'Iparraguirre, Op. 39"
PERFORMER "Tianwa Yang & Markus Hadulla"
INDEX 00 05:30:55
INDEX 01 05:35:00
TRACK 03 AUDIO
TITLE "Serenade andalouse, Op. 10"
PERFORMER "Tianwa Yang & Markus Hadulla"
INDEX 00 07:25:10
INDEX 01 07:31:52
TRACK 04 AUDIO
TITLE "Adios montanas mias - Danse espagnole, Op. 37"
PERFORMER "Tianwa Yang & Markus Hadulla"
INDEX 00 12:22:34
INDEX 01 12:24:63
TRACK 05 AUDIO
TITLE "Le Sommeil, Op. 11"
PERFORMER "Tianwa Yang & Markus Hadulla"
INDEX 00 14:39:58
INDEX 01 14:45:48
TRACK 06 AUDIO
TITLE "Reverie, Op. 4"
PERFORMER "Tianwa Yang & Markus Hadulla"
INDEX 00 19:23:17
INDEX 01 19:37:69
TRACK 07 AUDIO
TITLE "Introduction et fandango, Op. 40"
PERFORMER "Tianwa Yang & Markus Hadulla"
INDEX 00 24:12:39
INDEX 01 24:25:45
TRACK 08 AUDIO
TITLE "Fantaisie-Caprice"
PERFORMER "Tianwa Yang & Markus Hadulla"
INDEX 00 32:25:54
INDEX 01 32:31:45
TRACK 09 AUDIO
TITLE "Priere et berceuse, Op. 17"
PERFORMER "Tianwa Yang & Markus Hadulla"
INDEX 00 41:35:51
INDEX 01 41:38:70
TRACK 10 AUDIO
TITLE "Confidences - Romance sans paroles, Op. 7"
PERFORMER "Tianwa Yang & Markus Hadulla"
INDEX 00 46:02:59
INDEX 01 46:11:47
TRACK 11 AUDIO
TITLE "Caprice sur Mireille de Gounod, Op. 6"
PERFORMER "Tianwa Yang & Markus Hadulla"
INDEX 00 50:02:00
INDEX 01 50:07:11
TRACK 12 AUDIO
TITLE "Airs ecossais, Op. 34"
PERFORMER "Tianwa Yang & Markus Hadulla"
INDEX 00 59:26:01
INDEX 01 59:28:23
TRACK 13 AUDIO
TITLE "Los pajaros de Chile"
PERFORMER "Tianwa Yang & Markus Hadulla"
INDEX 00 67:42:39
INDEX 01 67:46:36
TRACK 14 AUDIO
TITLE "Les Adieux, Op. 9"
PERFORMER "Tianwa Yang & Markus Hadulla"
INDEX 00 74:13:55
INDEX 01 74:17:08
INDEX 02 78:49:12

Вариант индексной карты (.CUE) с исправленными зазорами и разделением opp. 6 и 34 на несколько треков.

REM GENRE Classical
REM DATE 2012
REM DISCID D3127D0E
REM COMMENT "ExactAudioCopy v0.99pb5"
PERFORMER "Tianwa Yang & Markus Hadulla"
TITLE "Sarasate – Music for violin & piano, vol. 3 – Tianwa Yang & Markus Hadulla"
FILE "Sarasate – Music for violin & piano, vol. 3 – Tianwa Yang & Markus Hadulla.flac" WAVE
TRACK 01 AUDIO
TITLE "Bolero, Op. 30"
PERFORMER "Tianwa Yang & Markus Hadulla"
INDEX 00 00:00:00
INDEX 01 00:01:37
TRACK 02 AUDIO
TITLE "Zortzico d'Iparraguirre, Op. 39"
PERFORMER "Tianwa Yang & Markus Hadulla"
INDEX 00 05:30:55
INDEX 01 05:35:00
TRACK 03 AUDIO
TITLE "Serenade andalouse, Op. 10"
PERFORMER "Tianwa Yang & Markus Hadulla"
INDEX 00 07:25:10
INDEX 01 07:31:52
TRACK 04 AUDIO
TITLE "Adios montanas mias - Danse espagnole, Op. 37"
PERFORMER "Tianwa Yang & Markus Hadulla"
INDEX 00 12:22:34
INDEX 01 12:24:63
TRACK 05 AUDIO
TITLE "Le Sommeil, Op. 11"
PERFORMER "Tianwa Yang & Markus Hadulla"
INDEX 00 14:39:58
INDEX 01 14:45:48
TRACK 06 AUDIO
TITLE "Reverie, Op. 4"
PERFORMER "Tianwa Yang & Markus Hadulla"
INDEX 00 19:23:17
INDEX 01 19:37:69
TRACK 07 AUDIO
TITLE "Introduction et fandango, Op. 40"
PERFORMER "Tianwa Yang & Markus Hadulla"
INDEX 00 24:12:39
INDEX 01 24:25:45
TRACK 08 AUDIO
TITLE "Fantaisie-Caprice"
PERFORMER "Tianwa Yang & Markus Hadulla"
INDEX 00 32:25:54
INDEX 01 32:31:45
TRACK 09 AUDIO
TITLE "Priere et berceuse, Op. 17"
PERFORMER "Tianwa Yang & Markus Hadulla"
INDEX 00 41:35:51
INDEX 01 41:38:70
TRACK 10 AUDIO
TITLE "Confidences - Romance sans paroles, Op. 7"
PERFORMER "Tianwa Yang & Markus Hadulla"
INDEX 00 46:02:59
INDEX 01 46:11:47
TRACK 11 AUDIO
TITLE "Caprice sur Mireille de Gounod, Op. 6 - Overture -"
PERFORMER "Tianwa Yang & Markus Hadulla"
INDEX 00 50:02:00
INDEX 01 50:07:11
TRACK 12 AUDIO
TITLE "Caprice sur Mireille de Gounod, Op. 6 - Chanson de Magali -"
PERFORMER "Tianwa Yang & Markus Hadulla"
INDEX 01 53:52:18
TRACK 13 AUDIO
TITLE "Caprice sur Mireille de Gounod, Op. 6 - Introduction de Ier acte"
PERFORMER "Tianwa Yang & Markus Hadulla"
INDEX 01 56:21:05
TRACK 14 AUDIO
TITLE "Airs ecossais, Op. 34 - Lent -"
PERFORMER "Tianwa Yang & Markus Hadulla"
INDEX 00 59:26:01
INDEX 01 59:28:23
TRACK 15 AUDIO
TITLE "Airs ecossais, Op. 34 - Grazioso non troppo -"
PERFORMER "Tianwa Yang & Markus Hadulla"
INDEX 01 60:45:12
TRACK 16 AUDIO
TITLE "Airs ecossais, Op. 34 - Tres lent -"
PERFORMER "Tianwa Yang & Markus Hadulla"
INDEX 01 62:45:42
TRACK 17 AUDIO
TITLE "Airs ecossais, Op. 34 - Moderato"
PERFORMER "Tianwa Yang & Markus Hadulla"
INDEX 01 65:00:49
TRACK 18 AUDIO
TITLE "Los pajaros de Chile"
PERFORMER "Tianwa Yang & Markus Hadulla"
INDEX 00 67:42:39
INDEX 01 67:46:36
TRACK 19 AUDIO
TITLE "Les Adieux, Op. 9"
PERFORMER "Tianwa Yang & Markus Hadulla"
INDEX 00 74:13:55
INDEX 01 74:17:08
INDEX 02 78:49:12



Показать сообщения:    

Текущее время: 08-Дек 11:00

Часовой пояс: UTC + 3


Вы не можете начинать темы
Вы не можете отвечать на сообщения
Вы не можете редактировать свои сообщения
Вы не можете удалять свои сообщения
Вы не можете голосовать в опросах
Вы не можете прикреплять файлы к сообщениям
Вы не можете скачивать файлы