(Classical) Сарасате – Сочинения с фортепиано I / Sarasate – Music for violin & piano 1: Spanish dances, Serenata Andaluza, Capricho Vasco, Jota Aragonesa, Balada (Tianwa Yang & Markus Hadulla) - 2006, FLAC (image+.cue) lossless


 

[Цитировать]

Сарасате – Сочинения с фортепиано I / Sarasate – Music for violin & piano 1: Spanish dances, Serenata Andaluza, Capricho Vasco, Jota Aragonesa, Balada (Tianwa Yang & Markus Hadulla)
Жанр: Classical
Страна-производитель диска: ЕС
Год издания диска: 2006
Издатель (лейбл): Naxos
Номер по каталогу: 8.557767
Дата записи: 27 — 31 мая 2004 г., Зандхаузен.
Аудиокодек: FLAC
Тип рипа: image+.cue
Битрейт аудио: lossless
Продолжительность: 01:08:03
Источник: konst на Погружении
Наличие сканов в содержимом раздачи: да
Треклист:-Пабло Мартин Мелитон де Сарасате-и-Наваскес (1844— 1908).
Сочинения для скрипки с фортепиано, часть I.-«Испанские танцы».
Тетрадь I, op. 21 (1878).
03. № 1 (1) D-dur. Малагенья (Malagueña). Andantino [04:10].
01. № 2 (2) d-moll. Хабанера (Habanera). Allegretto [04:47].
Тетрадь II, op. 22 (1878).
05. № 1 (3) C-dur. Андалусийский романс (Romanza Andaluza). Andantino [04:58].
06. № 2 (4) D-dur. Наваррская хота (Jota Navarra). Allegro [05:22].
Тетрадь III, op. 23 (1879).
02. № 1 (5) d-moll. Плайера (Playera). Lento [04:20].
10. № 2 (6) A-dur. Сапатеадо (Zapateado). Allegro [03:45].
Тетрадь IV, op. 26 (1881).
11. № 1 (7) a-moll. [«Отъезд» Ф.М. Альвареса.] Allegretto [06:31].
12. № 2 (8) a-moll. [Хабанера (Habanera).] Allegro moderato [04:54].
Тетрадь V, op. 28 (опубл. 1883).
07. Андалусийская серенада (Sérénade andalouse) a-moll. Andante, non troppo. — Più mosso. — Meno mosso (Tempo I). — Più mosso. — Meno mosso. — Più mosso [06:48].
«Баскское каприччио» (Capricho Vasco) d-moll (a-moll), op. 24 (1880).
04a. [«Desde que nace el dia».] Moderato. —
04b. — [«Iru damacho».] Allegro moderato [06:52].
Арагонская хота (Jota Aragonesa) D-dur, op. 27 (1882).
08. Allegro [05:13].
Баллада (Ballade) e-moll, op. 31 (опубл. 1886).
09. Andante molto moderato. — Cantabile sempre moderato. — Tempo I. — Cantabile lento [10:23].-Исполнители:
Tianwa Yang (скрипка).
Markus Hadulla (фортепиано).-

Лог создания рипа

Exact Audio Copy V0.99 prebeta 5 from 4. May 2009
Отчёт EAC об извлечении, выполненном 4. мая 2010, 13:41
Pablo Sarasate / Music for Violin and Piano - 1
Дисковод: ASUS CB-5216A Adapter: 1 ID: 1
Режим чтения : Достоверность
Использование точного потока : Да
Отключение кэша аудио : Да
Использование указателей C2 : Нет
Коррекция смещения при чтении : 6
Способность читать области Lead-in и Lead-out : Да
Заполнение пропущенных сэмплов тишиной : Да
Удаление блоков с тишиной в начале и конце : Нет
При вычислениях CRC использовались нулевые сэмплы : Да
Интерфейс : Установленный внешний ASPI-интерфейс
Выходной формат : Пользовательский кодировщик
Выбранный битрейт : 768 kBit/s
Качество : Высокий
Добавление ID3-тэга : Нет
Утилита сжатия : C:\Program Files\Exact Audio Copy\FLAC\FLAC.EXE
Дополнительные параметры : -6 -V -T "ARTIST=%a" -T "TITLE=%t" -T "ALBUM=%g" -T "DATE=%y" -T "TRACKNUMBER=%n" -T "GENRE=%m" -T "COMMENT=%e" %s -o %d
TOC извлечённого CD
Трек | Старт | Длительность | Начальный сектор | Конечный сектор
---------------------------------------------------------------------
1 | 0:00.00 | 4:46.15 | 0 | 21464
2 | 4:46.15 | 4:20.18 | 21465 | 40982
3 | 9:06.33 | 4:09.44 | 40983 | 59701
4 | 13:16.02 | 6:53.02 | 59702 | 90678
5 | 20:09.04 | 4:57.11 | 90679 | 112964
6 | 25:06.15 | 5:22.21 | 112965 | 137135
7 | 30:28.36 | 6:47.55 | 137136 | 167715
8 | 37:16.16 | 5:13.10 | 167716 | 191200
9 | 42:29.26 | 10:22.74 | 191201 | 237924
10 | 52:52.25 | 3:45.00 | 237925 | 254799
11 | 56:37.25 | 6:29.52 | 254800 | 284026
12 | 63:07.02 | 4:53.73 | 284027 | 306074
Характеристики диапазона извлечения и сообщения об ошибках
Выбранный диапазон
Имя файла C:\TEMP\Pablo Sarasate - Music for Violin and Piano - 1.wav
Пиковый уровень 98.7 %
Качество диапазона 100.0 %
CRC копии 8D78C3A7
Копирование... OK
Ошибок не произошло
Конец отчёта

Содержание индексной карты (.CUE)

REM GENRE Classical
REM DATE 2004
REM DISCID BA0FF10C
REM COMMENT "ExactAudioCopy v0.99pb5"
PERFORMER "Tianwa Yang & Markus Hadulla"
TITLE "Sarasate – Music for violin & piano, vol. 1 – Tianwa Yang & Markus Hadulla"
FILE "Sarasate – Music for violin & piano, vol. 1 – Tianwa Yang & Markus Hadulla.flac" WAVE
TRACK 01 AUDIO
TITLE "Danza Espanola No. 2. Habanera, Op. 21 no. 2"
PERFORMER "Tianwa Yang & Markus Hadulla"
INDEX 01 00:00:00
TRACK 02 AUDIO
TITLE "Danza Espanola No. 5. Playera, Op. 23 no. 1"
PERFORMER "Tianwa Yang & Markus Hadulla"
INDEX 00 04:44:59
INDEX 01 04:46:15
TRACK 03 AUDIO
TITLE "Danza Espanola No. 1. Malaguena, Op. 21 no. 1"
PERFORMER "Tianwa Yang & Markus Hadulla"
INDEX 00 09:05:12
INDEX 01 09:06:33
TRACK 04 AUDIO
TITLE "Capricho Vasco, Op. 24"
PERFORMER "Tianwa Yang & Markus Hadulla"
INDEX 00 13:14:62
INDEX 01 13:16:02
TRACK 05 AUDIO
TITLE "Danza Espanola No. 3. Romanza Andaluza, Op. 22 no. 1"
PERFORMER "Tianwa Yang & Markus Hadulla"
INDEX 00 20:06:58
INDEX 01 20:09:04
TRACK 06 AUDIO
TITLE "Danza Espanola No. 4. Jota Navarra, Op. 22 no. 2"
PERFORMER "Tianwa Yang & Markus Hadulla"
INDEX 00 25:05:12
INDEX 01 25:06:15
TRACK 07 AUDIO
TITLE "Serenata Andaluza, Op. 28"
PERFORMER "Tianwa Yang & Markus Hadulla"
INDEX 00 30:27:11
INDEX 01 30:28:36
TRACK 08 AUDIO
TITLE "Jota Aragonesa, Op. 27"
PERFORMER "Tianwa Yang & Markus Hadulla"
INDEX 00 37:15:35
INDEX 01 37:16:16
TRACK 09 AUDIO
TITLE "Balada, Op. 31"
PERFORMER "Tianwa Yang & Markus Hadulla"
INDEX 00 42:28:25
INDEX 01 42:29:26
TRACK 10 AUDIO
TITLE "Danza Espanola No. 6. Zapateado, Op. 23 no. 2"
PERFORMER "Tianwa Yang & Markus Hadulla"
INDEX 00 52:51:24
INDEX 01 52:52:25
TRACK 11 AUDIO
TITLE "Danza Espanola No. 7. Vito, Op. 26 no. 1"
PERFORMER "Tianwa Yang & Markus Hadulla"
INDEX 00 56:36:16
INDEX 01 56:37:25
TRACK 12 AUDIO
TITLE "Danza Espanola No. 8. Habanera, Op. 26 no. 2"
PERFORMER "Tianwa Yang & Markus Hadulla"
INDEX 01 63:07:02

Вариант индексной карты (.CUE) с исправленными зазорами (вторая половина «Баскского каприччио» отделена индексом)

REM GENRE Classical
REM DATE 2004
REM DISCID BA0FF10C
REM COMMENT "ExactAudioCopy v0.99pb5"
PERFORMER "Tianwa Yang & Markus Hadulla"
TITLE "Sarasate – Music for violin & piano, vol. 1 – Tianwa Yang & Markus Hadulla"
FILE "Sarasate – Music for violin & piano, vol. 1 – Tianwa Yang & Markus Hadulla.flac" WAVE
TRACK 01 AUDIO
TITLE "Danza Espanola No. 2. Habanera, Op. 21 no. 2"
PERFORMER "Tianwa Yang & Markus Hadulla"
INDEX 00 00:00:00
INDEX 01 00:00:56
TRACK 02 AUDIO
TITLE "Danza Espanola No. 5. Playera, Op. 23 no. 1"
PERFORMER "Tianwa Yang & Markus Hadulla"
INDEX 00 04:43:67
INDEX 01 04:46:47
TRACK 03 AUDIO
TITLE "Danza Espanola No. 1. Malaguena, Op. 21 no. 1"
PERFORMER "Tianwa Yang & Markus Hadulla"
INDEX 00 09:05:12
INDEX 01 09:06:73
TRACK 04 AUDIO
TITLE "Capricho Vasco, Op. 24"
PERFORMER "Tianwa Yang & Markus Hadulla"
INDEX 00 13:14:62
INDEX 01 13:16:44
INDEX 02 16:14:05
TRACK 05 AUDIO
TITLE "Danza Espanola No. 3. Romanza Andaluza, Op. 22 no. 1"
PERFORMER "Tianwa Yang & Markus Hadulla"
INDEX 00 20:05:71
INDEX 01 20:09:45
TRACK 06 AUDIO
TITLE "Danza Espanola No. 4. Jota Navarra, Op. 22 no. 2"
PERFORMER "Tianwa Yang & Markus Hadulla"
INDEX 00 25:05:12
INDEX 01 25:06:58
TRACK 07 AUDIO
TITLE "Serenata Andaluza, Op. 28"
PERFORMER "Tianwa Yang & Markus Hadulla"
INDEX 00 30:26:33
INDEX 01 30:29:07
TRACK 08 AUDIO
TITLE "Jota Aragonesa, Op. 27"
PERFORMER "Tianwa Yang & Markus Hadulla"
INDEX 00 37:14:04
INDEX 01 37:16:49
TRACK 09 AUDIO
TITLE "Balada, Op. 31"
PERFORMER "Tianwa Yang & Markus Hadulla"
INDEX 00 42:26:53
INDEX 01 42:29:64
TRACK 10 AUDIO
TITLE "Danza Espanola No. 6. Zapateado, Op. 23 no. 2"
PERFORMER "Tianwa Yang & Markus Hadulla"
INDEX 00 52:51:24
INDEX 01 52:52:61
TRACK 11 AUDIO
TITLE "Danza Espanola No. 7. Vito, Op. 26 no. 1"
PERFORMER "Tianwa Yang & Markus Hadulla"
INDEX 00 56:34:24
INDEX 01 56:37:60
TRACK 12 AUDIO
TITLE "Danza Espanola No. 8. Habanera, Op. 26 no. 2"
PERFORMER "Tianwa Yang & Markus Hadulla"
INDEX 01 63:07:50
INDEX 02 67:57:00
-



Показать сообщения:    

Текущее время: 05-Дек 11:30

Часовой пояс: UTC + 3


Вы не можете начинать темы
Вы не можете отвечать на сообщения
Вы не можете редактировать свои сообщения
Вы не можете удалять свои сообщения
Вы не можете голосовать в опросах
Вы не можете прикреплять файлы к сообщениям
Вы не можете скачивать файлы