(Classical) Edvard Grieg - Sigurd Jorsalfar; Bergliot; Den Bergtekne; Landkjenning - Håkan Hagegård (Hakan Hagegard), Bergen Philharmonic Orchestra, Ole Kristian Ruud - 2004, FLAC (image+.cue) lossless


 

[Цитировать]

Edvard Grieg - Sigurd Jorsalfar; Bergliot; Den Bergtekne; Landkjenning - Håkan Hagegård, Bergen Philharmonic Orchestra, Ole Kristian Ruud
Жанр: Classical
Страна-производитель диска: Sweden
Год издания диска: 2004
Издатель (лейбл): BIS
Номер по каталогу: BIS-SACD-1391
Дата записи: 2003
Аудиокодек: FLAC
Тип рипа: image+.cue
Битрейт аудио: lossless
Продолжительность: 74:36
Источник: собственный рип
Наличие сканов в содержимом раздачи: да
Треклист:
Edvard Grieg (1843-1907)
[1]-[8] Sigurd Jorsalfar, Op. 22 (1872)
Incidental music to the play by Bjørnstjerne Bjørnson
[9] Landkjenning, Op. 31 (1872, rev. 1881)
for baritone, male choir and orchestra
Håkan Hagegård baritone
Male voices from the Bergen Philharmonic Choir, Seim Songkor and Kor Vest
[10] Bergliot, Op. 42 (1871, orch. 1885)
Melodrama for declamation and orchestra
Gørild Mauseth narrator
[11] Sørgemarsj over Rikard Nordraak, EG 117 (1866)
[12] Den Bergtekne, Op. 32 (1877-78)
for baritone and orchestra
Håkan Hagegård baritone
Исполнители:
Håkan Hagegård baritone
Bergen Philharmonic Orchestra
Ole Kristian Ruud

Лог создания рипа

Exact Audio Copy V1.0 beta 3 from 29. August 2011
EAC extraction logfile from 28. January 2015, 1:54
Bergen PO, Ole Kristian Ruud / Grieg - Sigurd Jorsalfar
Used drive : HL-DT-STDVDRAM GU70N Adapter: 0 ID: 0
Read mode : Secure
Utilize accurate stream : Yes
Defeat audio cache : Yes
Make use of C2 pointers : No
Read offset correction : 48
Overread into Lead-In and Lead-Out : No
Fill up missing offset samples with silence : Yes
Delete leading and trailing silent blocks : No
Null samples used in CRC calculations : Yes
Used interface : Native Win32 interface for Win NT & 2000
Used output format : User Defined Encoder
Selected bitrate : 128 kBit/s
Quality : High
Add ID3 tag : No
Command line compressor : C:\Program Files (x86)\Exact Audio Copy\Flac\flac.exe
Additional command line options : -V -8 -T "Date=%year%" -T "Genre=%genre%" %source%
TOC of the extracted CD
Track | Start | Length | Start sector | End sector
---------------------------------------------------------
1 | 0:00.00 | 2:14.39 | 0 | 10088
2 | 2:14.39 | 3:46.06 | 10089 | 27044
3 | 6:00.45 | 3:40.30 | 27045 | 43574
4 | 9:41.00 | 5:59.30 | 43575 | 70529
5 | 15:40.30 | 9:21.24 | 70530 | 112628
6 | 25:01.54 | 1:48.03 | 112629 | 120731
7 | 26:49.57 | 3:37.08 | 120732 | 137014
8 | 30:26.65 | 4:22.74 | 137015 | 156738
9 | 34:49.64 | 6:42.60 | 156739 | 186948
10 | 41:32.49 | 18:51.29 | 186949 | 271802
11 | 60:24.03 | 8:05.72 | 271803 | 308249
12 | 68:30.00 | 6:06.05 | 308250 | 335704
Range status and errors
Selected range
Filename C:\temp\BIS-SACD-1391 - Grieg - Sigurd Jorsalfar\Grieg - Sigurd Jorsalfar.wav
Peak level 100.0 %
Extraction speed 2.3 X
Range quality 100.0 %
Test CRC FA90F0AF
Copy CRC FA90F0AF
Copy OK
No errors occurred
AccurateRip summary
Track 1 accurately ripped (confidence 6) [CD895456] (AR v2)
Track 2 accurately ripped (confidence 6) [591DB548] (AR v2)
Track 3 accurately ripped (confidence 6) [7ACB5322] (AR v2)
Track 4 accurately ripped (confidence 6) [17EB2F37] (AR v2)
Track 5 accurately ripped (confidence 6) [EFA2EEA1] (AR v2)
Track 6 accurately ripped (confidence 6) [B7B8152B] (AR v2)
Track 7 accurately ripped (confidence 6) [2D2C452A] (AR v2)
Track 8 accurately ripped (confidence 6) [B826AB8D] (AR v2)
Track 9 accurately ripped (confidence 6) [386A8172] (AR v2)
Track 10 accurately ripped (confidence 5) [AADA5288] (AR v2)
Track 11 accurately ripped (confidence 5) [E9DE65DE] (AR v2)
Track 12 accurately ripped (confidence 6) [E3E3ECDD] (AR v2)
All tracks accurately ripped
End of status report
==== Log checksum 8264F54B7F8E31F619E7169AC5F6B1BE040DEAAFDE45D24732744AC219ECE622 ====



Показать сообщения:    

Текущее время: 11-Дек 14:53

Часовой пояс: UTC + 3


Вы не можете начинать темы
Вы не можете отвечать на сообщения
Вы не можете редактировать свои сообщения
Вы не можете удалять свои сообщения
Вы не можете голосовать в опросах
Вы не можете прикреплять файлы к сообщениям
Вы не можете скачивать файлы