(Classical) Harvestehuder Kammerchor - Music For Christmas, Es kommt ein Schiff, geladen - 2000, FLAC (tracks+.cue) lossless


Статистика раздачи [Обновить пиров]
Размер:  214 MB   |    Зарегистрирован:  9 месяцев 28 дней   |    Скачан:  1 раз

Полного источника не было: 1 месяц 14 дней

 
   
 
 
 

[Цитировать]

Harvestehuder Kammerchor - Music For Christmas, Es kommt ein Schiff, geladen
Жанр: Classical
Страна-производитель диска: EU
Год издания диска: 2000
Издатель (лейбл): Arte Nova Musikproduktions GmbH
Номер по каталогу: 7432180482 2
Аудиокодек: FLAC
Тип рипа: tracks+.cue
Битрейт аудио: lossless
Продолжительность: 0:58:49.
Источник: собственный рип
Наличие сканов в содержимом раздачи: да
Треклист:
01. Es kommt ein Schiff, geladen (Improvisationen) [0:06:59.50]
02. Übers Gebirg Maria geht [0:03:08.00]
03. Der Morgenstern ist aufgedrungen [0:03:41.00]
04. Was soll das bedeuten [0:03:14.00]
05. O Jesulein zart [0:03:43.00]
06. Nun komm, der Heiden Heiland [0:02:28.00]
07. Es kommt ein Schiff [0:03:50.00]
08. Josef, lieber Josef mein [0:02:28.00]
09. Vom Himmel hoch, da komm ich her (Improvisationen) [0:02:55.00]
10. Hush You, My Baby [0:03:09.00]
11. Away in a Manger [0:02:10.00]
12. Kommet, ihr Hirten (Improvisationen) [0:05:08.00]
13. Sing we song of high revolt [0:01:59.00]
14. Es ist ein Ros entsprungen [0:05:27.00]
15. Die Nacht ist vorgedrungen (Improvisationen) [0:05:30.00]
16. Ich steh an deiner Krippen hier [0:02:59.37]
Исполнители:
Harvestehuder Kammerchor - C. Bantzer, Leitung und Orgel

Лог создания рипа

Exact Audio Copy V1.0 beta 3 from 29. August 2011
Отчёт EAC об извлечении, выполненном 13. июня 2015, 23:01
Harvestehuder Kammerchor / Es kommt ein Schiff, geladen...
Дисковод: ASUS DRW-1814BLT Adapter: 4 ID: 0
Режим чтения : Достоверность
Использование точного потока : Да
Отключение кэша аудио : Да
Использование указателей C2 : Нет
Коррекция смещения при чтении : 6
Способность читать области Lead-in и Lead-out : Нет
Заполнение пропущенных сэмплов тишиной : Да
Удаление блоков с тишиной в начале и конце : Нет
При вычислениях CRC использовались нулевые сэмплы : Да
Интерфейс : Встроенный Win32-интерфейс для Win NT/2000
Обработка зазоров : Добавлено к предыдущему треку
Выходной формат : Пользовательский кодировщик
Выбранный битрейт : 128 kBit/s
Качество : Высокий
Добавление ID3-тега : Нет
Утилита сжатия : C:\Program Files\Exact Audio Copy\Flac\flac.exe
Дополнительные параметры : -V -8 -T "Genre=%genre%" -T "Artist=%artist%" -T "Title=%title%" -T "Album=%albumtitle%" -T "Date=%year%" -T "Tracknumber=%tracknr%" -T "Comment=EAC1.0b2 FLAC -8" %source%
TOC извлечённого CD
Трек | Старт | Длительность | Начальный сектор | Конечный сектор
---------------------------------------------------------------------
1 | 0:00.00 | 6:59.50 | 0 | 31474
2 | 6:59.50 | 3:08.00 | 31475 | 45574
3 | 10:07.50 | 3:41.00 | 45575 | 62149
4 | 13:48.50 | 3:14.00 | 62150 | 76699
5 | 17:02.50 | 3:43.00 | 76700 | 93424
6 | 20:45.50 | 2:28.00 | 93425 | 104524
7 | 23:13.50 | 3:50.00 | 104525 | 121774
8 | 27:03.50 | 2:28.00 | 121775 | 132874
9 | 29:31.50 | 2:55.00 | 132875 | 145999
10 | 32:26.50 | 3:09.00 | 146000 | 160174
11 | 35:35.50 | 2:10.00 | 160175 | 169924
12 | 37:45.50 | 5:08.00 | 169925 | 193024
13 | 42:53.50 | 1:59.00 | 193025 | 201949
14 | 44:52.50 | 5:27.00 | 201950 | 226474
15 | 50:19.50 | 5:30.00 | 226475 | 251224
16 | 55:49.50 | 2:59.37 | 251225 | 264686
Трек 1
Имя файла R:\Раздача 48\Harvestehuder Kammerchor - 2000 - Es kommt ein Schiff, geladen\01 Es kommt ein Schiff, geladen (Improvisationen).wav
Длина предзазора 0:00:02.00
Пиковый уровень 79.5 %
Скорость извлечения 5.7 X
Качество трека 100.0 %
CRC теста 186231F5
CRC копии 186231F5
Точность не определена (достоверность 3) [7B24FD42], AccurateRip вернул [7612D7A0] (AR v2)
Копирование... OK
Трек 2
Имя файла R:\Раздача 48\Harvestehuder Kammerchor - 2000 - Es kommt ein Schiff, geladen\02 Übers Gebirg Maria geht.wav
Пиковый уровень 57.4 %
Скорость извлечения 5.8 X
Качество трека 100.0 %
CRC теста 0C1656BD
CRC копии 0C1656BD
Точность не определена (достоверность 3) [FFA37E41], AccurateRip вернул [F10CA40C] (AR v2)
Копирование... OK
Трек 3
Имя файла R:\Раздача 48\Harvestehuder Kammerchor - 2000 - Es kommt ein Schiff, geladen\03 Der Morgenstern ist aufgedrungen.wav
Пиковый уровень 46.1 %
Скорость извлечения 6.3 X
Качество трека 100.0 %
CRC теста 6E3DF97E
CRC копии 6E3DF97E
Точность не определена (достоверность 3) [0DCA145F], AccurateRip вернул [7D648409] (AR v2)
Копирование... OK
Трек 4
Имя файла R:\Раздача 48\Harvestehuder Kammerchor - 2000 - Es kommt ein Schiff, geladen\04 Was soll das bedeuten.wav
Пиковый уровень 69.6 %
Скорость извлечения 6.5 X
Качество трека 100.0 %
CRC теста 34A15A2B
CRC копии 34A15A2B
Точность не определена (достоверность 3) [2BD73554], AccurateRip вернул [2DD18CD0] (AR v2)
Копирование... OK
Трек 5
Имя файла R:\Раздача 48\Harvestehuder Kammerchor - 2000 - Es kommt ein Schiff, geladen\05 O Jesulein zart.wav
Пиковый уровень 65.8 %
Скорость извлечения 7.1 X
Качество трека 100.0 %
CRC теста F0EDD644
CRC копии F0EDD644
Точность не определена (достоверность 3) [C85E869C], AccurateRip вернул [72844932] (AR v2)
Копирование... OK
Трек 6
Имя файла R:\Раздача 48\Harvestehuder Kammerchor - 2000 - Es kommt ein Schiff, geladen\06 Nun komm, der Heiden Heiland.wav
Пиковый уровень 22.3 %
Скорость извлечения 6.8 X
Качество трека 100.0 %
CRC теста 06A8597D
CRC копии 06A8597D
Точность не определена (достоверность 3) [2B716FA3], AccurateRip вернул [8D936EEF] (AR v2)
Копирование... OK
Трек 7
Имя файла R:\Раздача 48\Harvestehuder Kammerchor - 2000 - Es kommt ein Schiff, geladen\07 Es kommt ein Schiff.wav
Пиковый уровень 79.2 %
Скорость извлечения 7.7 X
Качество трека 100.0 %
CRC теста 4472AA05
CRC копии 4472AA05
Точность не определена (достоверность 3) [D24FF79D], AccurateRip вернул [0E788D00] (AR v2)
Копирование... OK
Трек 8
Имя файла R:\Раздача 48\Harvestehuder Kammerchor - 2000 - Es kommt ein Schiff, geladen\08 Josef, lieber Josef mein.wav
Пиковый уровень 41.8 %
Скорость извлечения 7.3 X
Качество трека 100.0 %
CRC теста DB1543F0
CRC копии DB1543F0
Точность не определена (достоверность 3) [07C4C3DA], AccurateRip вернул [9F73F492] (AR v2)
Копирование... OK
Трек 9
Имя файла R:\Раздача 48\Harvestehuder Kammerchor - 2000 - Es kommt ein Schiff, geladen\09 Vom Himmel hoch, da komm ich her (Improvisationen).wav
Пиковый уровень 50.8 %
Скорость извлечения 7.8 X
Качество трека 100.0 %
CRC теста BCC1B066
CRC копии BCC1B066
Точность не определена (достоверность 3) [22C6697A], AccurateRip вернул [E3D7C68E] (AR v2)
Копирование... OK
Трек 10
Имя файла R:\Раздача 48\Harvestehuder Kammerchor - 2000 - Es kommt ein Schiff, geladen\10 Hush You, My Baby.wav
Пиковый уровень 96.6 %
Скорость извлечения 8.2 X
Качество трека 100.0 %
CRC теста C4EF00A3
CRC копии C4EF00A3
Точность не определена (достоверность 3) [4A877662], AccurateRip вернул [36DBC5A4] (AR v2)
Копирование... OK
Трек 11
Имя файла R:\Раздача 48\Harvestehuder Kammerchor - 2000 - Es kommt ein Schiff, geladen\11 Away in a Manger.wav
Пиковый уровень 58.2 %
Скорость извлечения 7.8 X
Качество трека 100.0 %
CRC теста B200A470
CRC копии B200A470
Точность не определена (достоверность 3) [E9FF3EDB], AccurateRip вернул [212854D3] (AR v2)
Копирование... OK
Трек 12
Имя файла R:\Раздача 48\Harvestehuder Kammerchor - 2000 - Es kommt ein Schiff, geladen\12 Kommet, ihr Hirten (Improvisationen).wav
Пиковый уровень 61.1 %
Скорость извлечения 9.2 X
Качество трека 100.0 %
CRC теста 2DC69499
CRC копии 2DC69499
Точность не определена (достоверность 3) [7891E7A3], AccurateRip вернул [D35EB3D8] (AR v2)
Копирование... OK
Трек 13
Имя файла R:\Раздача 48\Harvestehuder Kammerchor - 2000 - Es kommt ein Schiff, geladen\13 Sing we song of high revolt.wav
Пиковый уровень 100.0 %
Скорость извлечения 8.1 X
Качество трека 100.0 %
CRC теста EF9EA660
CRC копии EF9EA660
Точность не определена (достоверность 3) [C0A5C404], AccurateRip вернул [28B2625C] (AR v2)
Копирование... OK
Трек 14
Имя файла R:\Раздача 48\Harvestehuder Kammerchor - 2000 - Es kommt ein Schiff, geladen\14 Es ist ein Ros entsprungen.wav
Пиковый уровень 18.1 %
Скорость извлечения 7.6 X
Качество трека 99.9 %
CRC теста FCE77BF0
CRC копии FCE77BF0
Точность не определена (достоверность 3) [B9902B0B], AccurateRip вернул [3C4CE518] (AR v2)
Копирование... OK
Трек 15
Имя файла R:\Раздача 48\Harvestehuder Kammerchor - 2000 - Es kommt ein Schiff, geladen\15 Die Nacht ist vorgedrungen (Improvisationen).wav
Пиковый уровень 65.5 %
Скорость извлечения 7.9 X
Качество трека 99.9 %
CRC теста 95B2A47F
CRC копии 95B2A47F
Точность не определена (достоверность 3) [A91FAB52], AccurateRip вернул [EBFE5B1D] (AR v2)
Копирование... OK
Трек 16
Имя файла R:\Раздача 48\Harvestehuder Kammerchor - 2000 - Es kommt ein Schiff, geladen\16 Ich steh an deiner Krippen hier.wav
Пиковый уровень 59.3 %
Скорость извлечения 9.7 X
Качество трека 100.0 %
CRC теста D3221522
CRC копии D3221522
Точность не определена (достоверность 3) [86DEA4CD], AccurateRip вернул [F6F94B11] (AR v2)
Копирование... OK
Ни один трек не прошёл проверки на точность
В вашей базе может быть иной вариант штамповки диска
Ошибок не произошло
Конец отчёта
==== Контрольная сумма отчёта B7AA924940383937AD6BF9E849720BE168E618F3B3A25955C7AF0AFB66BB421A ====

Содержание индексной карты (.CUE)

REM GENRE Classical
REM DATE 2000
REM DISCID D80DC910
REM COMMENT "ExactAudioCopy v1.0b3"
PERFORMER "Harvestehuder Kammerchor"
TITLE "Es kommt ein Schiff, geladen..."
FILE "01 Es kommt ein Schiff, geladen (Improvisationen).wav" WAVE
TRACK 01 AUDIO
TITLE "Es kommt ein Schiff, geladen (Improvisationen)"
PERFORMER "Harvestehuder Kammerchor"
ISRC INDEX 01 00:00:00
FILE "02 Ubers Gebirg Maria geht.wav" WAVE
TRACK 02 AUDIO
TITLE "Ubers Gebirg Maria geht "
PERFORMER "Harvestehuder Kammerchor"
ISRC INDEX 01 00:00:00
FILE "03 Der Morgenstern ist aufgedrungen.wav" WAVE
TRACK 03 AUDIO
TITLE "Der Morgenstern ist aufgedrungen"
PERFORMER "Harvestehuder Kammerchor"
ISRC INDEX 01 00:00:00
FILE "04 Was soll das bedeuten.wav" WAVE
TRACK 04 AUDIO
TITLE "Was soll das bedeuten"
PERFORMER "Harvestehuder Kammerchor"
ISRC INDEX 01 00:00:00
FILE "05 O Jesulein zart.wav" WAVE
TRACK 05 AUDIO
TITLE "O Jesulein zart"
PERFORMER "Harvestehuder Kammerchor"
ISRC INDEX 01 00:00:00
FILE "06 Nun komm, der Heiden Heiland.wav" WAVE
TRACK 06 AUDIO
TITLE "Nun komm, der Heiden Heiland"
PERFORMER "Harvestehuder Kammerchor"
ISRC INDEX 01 00:00:00
FILE "07 Es kommt ein Schiff.wav" WAVE
TRACK 07 AUDIO
TITLE "Es kommt ein Schiff"
PERFORMER "Harvestehuder Kammerchor"
ISRC INDEX 01 00:00:00
FILE "08 Josef, lieber Josef mein.wav" WAVE
TRACK 08 AUDIO
TITLE "Josef, lieber Josef mein"
PERFORMER "Harvestehuder Kammerchor"
ISRC INDEX 01 00:00:00
FILE "09 Vom Himmel hoch, da komm ich her (Improvisationen).wav" WAVE
TRACK 09 AUDIO
TITLE "Vom Himmel hoch, da komm ich her (Improvisationen)"
PERFORMER "Harvestehuder Kammerchor"
ISRC INDEX 01 00:00:00
FILE "10 Hush You, My Baby.wav" WAVE
TRACK 10 AUDIO
TITLE "Hush You, My Baby"
PERFORMER "Harvestehuder Kammerchor"
ISRC INDEX 01 00:00:00
FILE "11 Away in a Manger.wav" WAVE
TRACK 11 AUDIO
TITLE "Away in a Manger"
PERFORMER "Harvestehuder Kammerchor"
ISRC INDEX 01 00:00:00
FILE "12 Kommet, ihr Hirten (Improvisationen).wav" WAVE
TRACK 12 AUDIO
TITLE "Kommet, ihr Hirten (Improvisationen)"
PERFORMER "Harvestehuder Kammerchor"
ISRC INDEX 01 00:00:00
FILE "13 Sing we song of high revolt.wav" WAVE
TRACK 13 AUDIO
TITLE "Sing we song of high revolt"
PERFORMER "Harvestehuder Kammerchor"
ISRC INDEX 01 00:00:00
FILE "14 Es ist ein Ros entsprungen.wav" WAVE
TRACK 14 AUDIO
TITLE "Es ist ein Ros entsprungen"
PERFORMER "Harvestehuder Kammerchor"
ISRC INDEX 01 00:00:00
FILE "15 Die Nacht ist vorgedrungen (Improvisationen).wav" WAVE
TRACK 15 AUDIO
TITLE "Die Nacht ist vorgedrungen (Improvisationen)"
PERFORMER "Harvestehuder Kammerchor"
ISRC INDEX 01 00:00:00
FILE "16 Ich steh an deiner Krippen hier.wav" WAVE
TRACK 16 AUDIO
TITLE "Ich steh an deiner Krippen hier"
PERFORMER "Harvestehuder Kammerchor"
ISRC INDEX 01 00:00:00
[teatrix.ru].t21575.torrent 
Торрент: Зарегистрирован [ 2016-03-20 12:39 ] · AEF971EA01A322E8AB5B4728FF9DB839128AAB90

Скачать .torrent

Скачать

19 KB

Статус: проверено
Скачан: 1 раз
Размер: 214 MB
terms.php



Быстрый ответ

Имя:

      
Для отправки сообщений необходимо включить JavaScript
Показать сообщения:    

Текущее время: 18-Янв 02:33

Часовой пояс: UTC + 3


Вы можете начинать темы
Вы можете отвечать на сообщения
Вы не можете редактировать свои сообщения
Вы не можете удалять свои сообщения
Вы не можете голосовать в опросах
Вы не можете прикреплять файлы к сообщениям
Вы можете скачивать файлы