[TR24][OF] Wolfgang Amadeus Mozart: Violin Concertos Nos. 3 & 4, Adagio K.261, Rondo K.269 - Julia Fischer, Netherlands Chamber Orchestra, Yakov Kreizberg/Яков Крейцберг - 2005 (Classical)


Статистика раздачи [Обновить пиров]
Размер:  1.05 GB   |    Зарегистрирован:  8 месяцев 21 день   |    Скачан:  0 раз

Полного источника не было: Никогда

 
   
 
 
 

[Цитировать]

Wolfgang Amadeus Mozart
Violin Concertos Nos. 3 and 4
Adagio K.261, Rondo K.269
Julia Fischer
Netherlands Chamber Orchestra
Yakov Kreizberg
-Год издания: 2005 | Жанр: Classical
Издатель: PentaTone Classics | Продолжительность: 01:00:42
Наличие сканов: Sleeve, Digital Booklet- -Контейнер: FLAC (*.flac) | Тип рипа: tracks
Разрядность: 24bit / 96kHz | Количество каналов: 2.0
-Треклист
Wolfgang Amadeus Mozart (1756-1791)
Violin Concerto No. 3 in G, K. 216
01.I. Allegro (9:06)
02. II. Adagio (8:21)
03. III. Rondeau (Allegro-Andante-Allegretto-Allegro) (6:18)
Violin Concerto No. 4 in D, K. 218
04. I. Allegro (8:32)
05. II. Andante cantabile (7:08)
06. III. Rondeau (Andante grazioso) (6:57)
Adagio for Violin and Orchestra in E, K. 261
07. Adagio for Violin and Orchestra (7:59)
Rondo for Violin and Orchestra in B flat, K. 269
08. Allegro (6:22)

О релизе


It takes a lot of guts to write your own cadenzas. After all, most of the concertos in the standard repertoire already have their standard cadenzas, usually supplied by either the composer or some exceedingly well-known soloist, and the chance of any current soloist touching the same celestial heights is doubtful at best. Nevertheless, on this disc of Mozart's Third and Fourth violin concertos coupled with his Adagio K. 261 and Rondo K. 269 for violin and orchestra, Julia Fischer not only writes most of her own cadenzas, she touches the same celestial heights as the greatest masters of the bow. Fischer has a pure tone, an impeccable intonation, and an immaculate technique, but she also has a warm heart and a radiant soul, and her performances of Mozart's concertos are as clear and luminous as the music. Beyond that, Fischer has the rare talent of writing cadenzas that partake of the substance of the music but transfuse it with the joy of Fischer's soul, and the result not only touches the heart, it touches the infinite. Yakov Kreizberg leads the Netherlands Chamber Orchestra in stylishly polished performances and provides the cadenza for the central Adagio of the Third concerto, but this is Fischer's show and she proves herself a star. PentaTone's 2005 sound is warm, deep, and full. --James Leonard
Personnel:
Julia Fischer – violin
Netherlands Chamber Orchestra
Conducted by Yakov Kreizberg
Recorded: Waalse Kerk (Èglise Wallon), Amsterdam, April 2005

ОтчётыДинамический диапазон

foobar2000 1.3.8 / Dynamic Range Meter 1.1.1
log date: 2015-06-24 21:13:35
--------------------------------------------------------------------------------
Analyzed: Julia Fischer, Netherlands Chamber Orchestra, Yakov Kreizberg / Mozart: Violin Concertos Nos. 3 and 4
--------------------------------------------------------------------------------
DR Peak RMS Duration Track
--------------------------------------------------------------------------------
DR14 -1.20 dB -21.51 dB 9:06 01-Violin Concerto No. 3 in G, K. 216 - I. Allegro
DR14 -5.81 dB -25.74 dB 8:21 02-Violin Concerto No. 3 in G, K. 216 - II. Adagio
DR15 -1.49 dB -22.88 dB 6:18 03-Violin Concerto No. 3 in G, K. 216 - III. Rondeau (Allegro-Andante-Allegretto-Allegro)
DR14 -2.07 dB -22.90 dB 8:32 04-Violin Concerto No. 4 in D, K. 218 - I. Allegro
DR14 -5.35 dB -24.35 dB 7:08 05-Violin Concerto No. 4 in D, K. 218 - II. Andante cantabile
DR14 -4.09 dB -23.58 dB 6:57 06-Violin Concerto No. 4 in D, K. 218 - III. Rondeau (Andante grazioso)
DR13 -2.81 dB -23.48 dB 7:59 07-Adagio for Violin and Orchestra in E, K. 261
DR14 -1.93 dB -23.71 dB 6:22 08-Rondo for Violin and Orchestra in B flat, K. 269 - Allegro
--------------------------------------------------------------------------------
Number of tracks: 8
Official DR value: DR14
Samplerate: 96000 Hz
Channels: 2
Bits per sample: 24
Bitrate: 2428 kbps
Codec: FLAC
================================================================================

Скриншот спектра частот

Доп. информация

При скачивании, если необходимо, переименуйте папку, в которой будет находиться альбомБольшая просьба к скачавшим поддерживать раздачу! Помогайте другим, ведь вам тоже может понадобиться помощь!Не забываем говорить "Спасибо"!Комментарии приветствуются!
Julia Fischer Hi-Res
[teatrix.ru].t21576.torrent 
Торрент: Зарегистрирован [ 2016-03-20 12:38 ] · 312B7B56430E8C3646571D4D36DC1B7108F40816

Скачать .torrent

Скачать

12 KB

Статус: проверено
Скачан: 0 раз
Размер: 1.05 GB
terms.php



Быстрый ответ

Имя:

      
Для отправки сообщений необходимо включить JavaScript
Показать сообщения:    

Текущее время: 10-Дек 19:42

Часовой пояс: UTC + 3


Вы можете начинать темы
Вы можете отвечать на сообщения
Вы не можете редактировать свои сообщения
Вы не можете удалять свои сообщения
Вы не можете голосовать в опросах
Вы не можете прикреплять файлы к сообщениям
Вы можете скачивать файлы