[TR24][OF] Wolfgang Amadeus Mozart: Violin Concertos Nos. 1, 2 & 5 - Julia Fischer, Pieter-Jan Belder, Netherlands Chamber Orchestra, Yakov Kreizberg/Яков Крейцберг - 2006 (Classical)

DL-List and Torrent activity [Update пиров]
Size:  1.24 GB   |    Registered:  7 months 4 days   |    Completed:  0 times

Seeder not seen: Never



Wolfgang Amadeus Mozart
Violin Concertos Nos. 1, 2 & 5
Julia Fischer
Netherlands Chamber Orchestra
Yakov Kreizberg
-Год издания: 2006 | Жанр: Classical
Издатель: PentaTone Classics | Продолжительность: 01:09:49
Наличие сканов: Sleeve, Digital Booklet- -Контейнер: FLAC (*.flac) | Тип рипа: tracks
Разрядность: 24bit / 96kHz | Количество каналов: 2.0
Wolfgang Amadeus Mozart (1756-1791)
Violin Concerto No. 1 in B flat
01.Allegro moderato (6:51)
02. Adagio (7:54)
03. Presto (5:44)
Violin Concerto No. 2 in D
04. Allegro moderato (7:56)
05. Andante (7:22)
06. Rondeau (Allegro) (4:11)
Violin Concerto No. 5 in A
07. Allegro aperto (9:30)
08. Adagio (11:35)
09. Rondeau (Tempo di menuetto) (8:45)

О релизе

Julia Fischer is joined by Yakov Kreizberg and the Netherlands Chamber Orchestra, as the musicians explore three Mozart concertos for violin and orchestra. The program includes Mozart’s joyous first two concertos and his complex fifth. This highly anticipated work follows the pair’s successful recording of Mozart’s Concertos Nos. 3 and 4. Fischer delivers a radiant performance filled with lyricism and refined charm, while Kreizberg commands the well-balanced orchestra with vibrant spontaneity.
Review Richard Wigmore "gramophone.co.uk"
This follow-up to Julia Fischer's widely acclaimed disc of Mozart's Concertos Nos 3 and 4 confirms the 23-year-old as a player of dazzling maturity and technical finish. Her tone is sweet and imaginatively coloured, her shaping of the music invariably interesting, with each phrase related naturally to its place in the larger scheme.
In fast movements, launched by Yakov Kreizberg's bristling, bright-eyed tuttis (the orchestral sound slightly inflated by the reverberant church acoustic), Fischer tends to be fierier and more assertive than either Pamela Frank or James Ehnes. The opening Allegro of No 5 and the outer movements of No 1 are superb in their mingled finesse of detail and exhilarating sweep - and I liked the aptly scaled cadenzas concocted jointly by Fischer and Kreizberg. More controversial is the triple-time finale of No 2. Fischer's unusually swift, tense reading is certainly effective, though here, as occasionally elsewhere, I did miss the wit and playfulness found by Ehnes and, especially, Frank.
It would be an exaggeration to say that Fischer slightly romanticises the slow movements. But she does cultivate a more intense vibrato and a more moulded, espressivo style of phrasing than either of the rival versions, especially in the seraphic Adagio of No 5, where her tempo is by some way the broadest of the three. While her performance is subtle and very beautiful, I am even more moved by Ehnes and Frank, both of whom seem to me to capture a crucial quality of spiritual innocence that eludes the more sophisticated Fischer. Ultimately, though, it all boils down to taste. Certainly, no one could deny the intelligence, panache or musical insight of Fischer's vividly imagined performances.
Julia Fischer, violin
Pieter-Jan Belder, harpsichord (K.207 & K.211)
Netherlands Chamber Orchestra
Yakov Kreizberg, conductor
Recorded: Doopsgezinde Kerk (Mennonite Church), Haarlem, The Netherlands, (3/2006)

ОтчётыДинамический диапазон

foobar2000 1.3.8 / Dynamic Range Meter 1.1.1
log date: 2015-06-24 21:23:04
Analyzed: Julia Fischer, Netherlands Chamber Orchestra, Yakov Kreizberg / Mozart: Violin Concertos Nos. 1, 2 and 5
DR Peak RMS Duration Track
DR14 -0.07 dB -20.47 dB 6:51 01-Violin Concerto No. 1 in B flat - Allegro moderato
DR14 -3.10 dB -23.69 dB 7:54 02-Violin Concerto No. 1 in B flat - Adagio
DR14 -1.03 dB -21.26 dB 5:44 03-Violin Concerto No. 1 in B flat - Presto
DR13 -2.04 dB -21.89 dB 7:56 04-Violin Concerto No. 2 in D - Allegro moderato
DR13 -3.78 dB -24.26 dB 7:22 05-Violin Concerto No. 2 in D - Andante
DR15 -1.83 dB -22.20 dB 4:11 06-Violin Concerto No. 2 in D - Rondeau (Allegro)
DR15 -0.61 dB -21.57 dB 9:30 07-Violin Concerto No. 5 in A - Allegro aperto
DR14 -3.10 dB -23.62 dB 11:35 08-Violin Concerto No. 5 in A - Adagio
DR14 -0.51 dB -20.43 dB 8:45 09-Violin Concerto No. 5 in A - Rondeau (Tempo di menuetto)
Number of tracks: 9
Official DR value: DR14
Samplerate: 96000 Hz
Channels: 2
Bits per sample: 24
Bitrate: 2524 kbps
Codec: FLAC

Скриншот спектра частот

Доп. информация

При скачивании, если необходимо, переименуйте папку, в которой будет находиться альбомБольшая просьба к скачавшим поддерживать раздачу! Помогайте другим, ведь вам тоже может понадобиться помощь!Не забываем говорить "Спасибо"!Комментарии приветствуются!
Julia Fischer Hi-Res
Torrent: Registered [ 2016-03-20 12:38 ] · 588FEAE2EBB5045243D4758F73FA2CA4C304D63A

Download .torrent


14 KB

Status: checked
Completed: 0 times
Size: 1.24 GB

Quick Reply


Heads necessary to send messages to enable JavaScript
Display posts:    

Current time is: 25-Oct 09:42

All times are UTC + 3

You can post new topics in this forum
You can reply to topics in this forum
You cannot edit your posts in this forum
You cannot delete your posts in this forum
You cannot vote in polls in this forum
You cannot attach files in this forum
You can download files in this forum