[TR24][OF] Wolfgang Amadeus Mozart: Sinfonia Concertante in E flat major; Rondo in C major; Concertone in C major - Julia Fischer, Gordan Nikolić (Nikolic), Netherlands Chamber Orchestra, Yakov Kreizberg/Яков Крейцберг - 2007 (Classical)


Статистика раздачи [Обновить пиров]
Размер:  1.16 GB   |    Зарегистрирован:  8 месяцев 20 дней   |    Скачан:  0 раз

Полного источника не было: Никогда

 
   
 
 
 

[Цитировать]

Wolfgang Amadeus Mozart
Sinfonia concertante, K. 364
Rondo in C major, K. 373
Concertone in C major, K. 190
Julia Fischer · Gordan Nikolić
Netherlands Chamber Orchestra
Yakov Kreizberg
-Год издания: 2007 | Жанр: Classical
Издатель: PentaTone Classics | Продолжительность: 01:03:34
Наличие сканов: Sleeve, Digital Booklet- -Контейнер: FLAC (*.flac) | Тип рипа: tracks
Разрядность: 24bit / 96kHz | Количество каналов: 2.0
-Треклист
Wolfgang Amadeus Mozart (1756-1791)
Sinfonia Concertante for Violin, Viola and Orchestra in E flat, K. 364
01.Allegro maestoso (12:32)
02. Andante (11:11)
03. Presto (6:19)
Rondo for Violin and Orchestra in C, K. 373
04. Allegretto grazioso (6:04)
Concertone for 2 Violins and Orchestra in C, K. 190
05. Allegro spiritoso (8:24)
06. Andantino grazioso (10:41)
07. Tempo di menuetto (Vivace) (8:23)

О релизе


German violinist Julia Fischer, 24 years old when this recording was released, is surely a bright new star, all charisma as her diminutive self stands between conductor and collaborator Yakov Kreizberg and violist Gordan Nikolic on the cover of this disc. She has a steely technique that she brings to Mozart's Sinfonia Concertante in E flat, K. 364 -- not a steely work, but the musicianship here is superb. Fischer and Nikolic make an attractive pair in the work, her razor-sharp tone set against his gutsier sound production, all the contrasts held together by Kreizberg's brisk tempos and no-nonsense forward drive. There are recordings of the Sinfonia Concertante that play more directly to sentiment, but the work's intricate architecture breathes in this interpretation. An additional bonus is the inclusion of the rarely heard Concertone in C major for two violins and orchestra, K. 190, a work that also has solo oboe and cello parts and seems to hang in the balance between the concerto and sinfonia concerante (multiple-soloist) genres. The performers bring a nice lilting quality to the first two movements, rather sprawling creations of the young Mozart that demand really compelling soloists of the sort on display here. The only complaint is over-resonant sound, the result of PentaTone's decision to record in a Haarlem church -- the wrong place for music intended for a medium-sized, crowded, well-upholstered room. It destroys the intimate scale of the performance and causes the soloists and the harpsichord continuo of the Concertone, especially, to sound a bit like they are swimming in a watery chamber. The clarity of Fischer's playing, however, is not compromised, and it's a real wonder. She has also recorded two of Mozart's solo violin concertos with the same forces, but this disc in a way suggests even greater talents. --James Manheim, AllMusic
Yakov Kreizberg launches the Sinfonia concertante in emphatic style: a no-nonsense tempo, lashing sforzando accents, a powerful forward impetus. Mozart's thrilling take on the slow-burn "Mannheim crescendo" has an almost ferocious intensity, enhanced by the recording's wide dynamic range. Then, from their seraphic first entry, the octaves perfectly in tune, the two soloists balance fire and finesse in a true partnership of equals. So often in this work the violinist outguns the viola player in personality and technique. But not here. Gordan Nikolitch's rich, throaty viola beautifully complements Julia Fischer's silvery sweetness. Mozart would surely have relished their vital, gracefully finished phrasing and the way they respond creatively to each other. Rival performers, including Augustin Dtunay and Veronika Hagen (DG, 12/00), Gidon Kremer and Kim Kashkashian (DG, 12/84k) and Iona Brown and Nobuko 'mai (Philips), are more responsive to Mozart's maestoso marking and more flexible in their shaping of the lyrical melodies. Once or twice, as in the C minor theme at 252", Fischer and Nikolitch can slightly gloss over the music's pathos. But the sweep, elan and sheer technical aplomb of their playing are certainly compelling.
Again, Fischer and Nikolitch use rubato sparingly in the C minor Andante, a transfigured love duet triste. Abetted by Kreizberg, they focus on the longer line, phrasing in broad, eloquent paragraphs and catching more than most an underlying agitation. The finale mingles grace and athletic exuberance, with the players vying delightedly in their bouts of bravura. Though the recording, made in a large church, is a tad boomy, this ranks high among modern recordings of this inexhaustible masterpiece. As light relief, we also get Fischer's puckish reading of the Rondo, K373, and a sprightly, occasionally (in the finale) impetuous performance of the innocuously charming Concertone, K190, where oboist Hans Meyer fully matches his violinist accomplices in wit and flair. --Richard Wigmore, Gramophone
Personnel:
Julia Fischer - violin
Gordan Nikolić - violin (K. 190) / viola (K. 364)
Hans Meyer - oboe (K. 190)
Herre Jan Stegenga - cello (K. 190)
Netherlands Chamber Orchestra
conducted by Yakov Kreizberg

ОтчётыДинамический диапазон

foobar2000 1.3.8 / Dynamic Range Meter 1.1.1
log date: 2015-06-24 21:40:37
--------------------------------------------------------------------------------
Analyzed: Julia Fischer, Gordan Nikolić, Hans Meyer, Herre Jan Stegenga, Netherlands Chamber Orchestra, Yakov Kreizberg / Mozart: Sinfonia concertante, K. 364 / Concertone in C major, K. 190 / Rondo in C major, K. 373 (1-3)
Julia Fischer, Gordan Nikolić, Netherlands Chamber Orchestra, Yakov Kreizberg / Mozart: Sinfonia concertante, K. 364 / Concertone in C major, K. 190 / Rondo in C major, K. 373 (4-6)
Julia Fischer, Netherlands Chamber Orchestra, Yakov Kreizberg / Mozart: Sinfonia concertante, K. 364 / Concertone in C major, K. 190 / Rondo in C major, K. 373 (7)
--------------------------------------------------------------------------------
DR Peak RMS Duration Track
--------------------------------------------------------------------------------
DR14 -0.35 dB -20.77 dB 8:24 05-Concertone for 2 Violins and Orchestra in C, K. 190 - Allegro spiritoso
DR14 -1.77 dB -21.83 dB 10:41 06-Concertone for 2 Violins and Orchestra in C, K. 190 - Andantino grazioso
DR16 0.00 dB -19.68 dB 8:23 07-Concertone for 2 Violins and Orchestra in C, K. 190 - Tempo di menuetto (Vivace)
DR13 0.00 dB -18.66 dB 12:32 01-Sinfonia Concertante for Violin, Viola and Orchestra in E flat, K. 364 - Allegro maestoso
DR16 -0.36 dB -22.13 dB 11:11 02-Sinfonia Concertante for Violin, Viola and Orchestra in E flat, K. 364 - Andante
DR14 0.00 dB -18.30 dB 6:19 03-Sinfonia Concertante for Violin, Viola and Orchestra in E flat, K. 364 - Presto
DR14 -1.18 dB -22.22 dB 6:04 04-Rondo for Violin and Orchestra in C, K. 373 - Allegretto grazioso
--------------------------------------------------------------------------------
Number of tracks: 7
Official DR value: DR14
Samplerate: 96000 Hz
Channels: 2
Bits per sample: 24
Bitrate: 2544 kbps
Codec: FLAC
================================================================================

Скриншот спектра частот

Доп. информация

При скачивании, если необходимо, переименуйте папку, в которой будет находиться альбомБольшая просьба к скачавшим поддерживать раздачу! Помогайте другим, ведь вам тоже может понадобиться помощь!Не забываем говорить "Спасибо"!Комментарии приветствуются!
Julia Fischer Hi-Res
[teatrix.ru].t21578.torrent 
Торрент: Зарегистрирован [ 2016-03-20 12:38 ] · 74AD53687B105B9AB4B3A4B51725E24D85C7C331

Скачать .torrent

Скачать

13 KB

Статус: проверено
Скачан: 0 раз
Размер: 1.16 GB
terms.php



Быстрый ответ

Имя:

      
Для отправки сообщений необходимо включить JavaScript
Показать сообщения:    

Текущее время: 09-Дек 18:32

Часовой пояс: UTC + 3


Вы можете начинать темы
Вы можете отвечать на сообщения
Вы не можете редактировать свои сообщения
Вы не можете удалять свои сообщения
Вы не можете голосовать в опросах
Вы не можете прикреплять файлы к сообщениям
Вы можете скачивать файлы