Последние 24 часа. Борис Хмельницкий (Фуад Шабанов) [2008, Документальный, SATRip]


Статистика раздачи [Обновить пиров]
Размер:  598 MB   |    Зарегистрирован:  8 месяцев 17 дней   |    Скачан:  0 раз

Полного источника не было: Никогда

 
   
 
 
 

[Цитировать]

Последние 24 часа. Борис Хмельницкий
Дата/Год выпуска: 2008
Страна: Россия
Жанр: Документальный
Продолжительность: 00:52:00
Перевод: Не требуется
Режиссер: Фуад Шабанов
Телеканал: Время
Описание: "Последние 24 часа" - это цикл программ, объединенных общей идеей - восстановить последний день из жизни известного человека. Это актёры, писатели, спортсмены, учёные, чья судьба и внезапная смерть имели большой общественный резонанс. До сих пор, независимо от давности событий, эти истории вызывают неподдельный интерес у зрителей. Главный вопрос, который волнует всех - почему? Почему это произошло, что стоит за этой трагедией, каковы истинные причины? В новом цикле будут даны ответы на многие из этих вопросов, представлены различные версии происшедшего, мнения близких героя, тех, кто были с ним в последние часы его жизни. Но при этом сюжет программы не ограничивается лишь хроникой последнего дня героя. Последние 24 часа - это финал, который в данном случае является отправной точкой для рассказа о наиболее значимых и ярких событиях, происходивших в течение всей его жизни. В фильмах используются архивные материалы, а также постановочные сцены и игровые эпизоды с участием актёров, воспроизводящих реальные события из жизни героя.
качество: SATRip
формат: AVI
Видео: XviD, 1600 кбит/сек, 688х528(4:3), 25000 кадров/сек
Аудио: Mp3, 128 Кбит/сек, 48,0 КГц, 2 канала

MediaInfo

Общее
Полное имя : D:\Видео\Мои раздачи\Последние 24 часа. Борис Хмельницкий.avi
Формат : AVI
Формат/Информация : Audio Video Interleave
Размер файла : 598 Мбайт
Продолжительность : 52 м.
Общий поток : 1607 Кбит/сек
Программа кодирования : VirtualDubMod 1.5.10.3 | www.virtualdub-fr.org || (build 2550/release)
Библиотека кодирования : VirtualDubMod build 2550/release
Видео
Идентификатор : 0
Формат : MPEG-4 Visual
Профиль формата : Advanced Simple@L5
Параметр BVOP формата : 2
Параметр QPel формата : Нет
Параметр GMC формата : Без точки перехода
Параметр матрицы формата : Default (H.263)
Режим смешивания : Сжатый битовый поток
Идентификатор кодека : XVID
Идентификатор кодека/Подсказка : XviD
Продолжительность : 52 м.
Битрейт : 1469 Кбит/сек
Ширина : 688 пикселей
Высота : 528 пикселей
Соотношение сторон : 4:3
Частота кадров : 25,000 кадров/сек
Цветовое пространство : YUV
Субдискретизация насыщенности : 4:2:0
Битовая глубина : 8 бит
Тип развёртки : Прогрессивная
Метод сжатия : С потерями
Бит/(Пиксели*Кадры) : 0.162
Размер потока : 547 Мбайт (91%)
Библиотека кодирования : XviD 1.2.1 (UTC 2008-12-04)
Аудио
Идентификатор : 1
Формат : MPEG Audio
Версия формата : Version 1
Профиль формата : Layer 3
Идентификатор кодека : 55
Идентификатор кодека/Подсказка : MP3
Продолжительность : 52 м.
Вид битрейта : Постоянный
Битрейт : 128 Кбит/сек
Каналы : 2 канала
Частота : 48,0 КГц
Метод сжатия : С потерями
Размер потока : 47,6 Мбайт (8%)
Выравнивание : Соединение по промежуткам
Продолжительность промежутка : 40 мс. (1,00 видеокадр)
Время предзагрузки промежутка : 504 мс.
Библиотека кодирования : LAME3.99r
Настройки программы : -m s -V 4 -q 2 -lowpass 17 -b 128

Скриншоты


[teatrix.ru].t21579.torrent 
Торрент: Зарегистрирован [ 2016-03-20 12:38 ] · 1641F64FDA2392E918E264C49C91B847C46CB87C

Скачать .torrent

Скачать

12 KB

Статус: проверено
Скачан: 0 раз
Размер: 598 MB
terms.php



Быстрый ответ

Имя:

      
Для отправки сообщений необходимо включить JavaScript
Показать сообщения:    

Текущее время: 07-Дек 11:39

Часовой пояс: UTC + 3


Вы можете начинать темы
Вы можете отвечать на сообщения
Вы не можете редактировать свои сообщения
Вы не можете удалять свои сообщения
Вы не можете голосовать в опросах
Вы не можете прикреплять файлы к сообщениям
Вы можете скачивать файлы