Федор Шаляпин: Великий скиталец (певец в Швеции) (Игорь Романовский) [2009, Документальный фильм, DVDRip]


Статистика раздачи [Обновить пиров]
Размер:  699 MB   |    Зарегистрирован:  8 месяцев 18 дней   |    Скачан:  0 раз

Полного источника не было: Никогда

 
   
 
 
 

[Цитировать]

Федор Шаляпин: Великий скиталец (певец в Швеции)
Дата/Год выпуска: 2009
Страна: Россия
Жанр: Документальный фильм
Продолжительность: 01:00:00
Перевод: Не требуется
Русские субтитры: нет
Режиссер: Игорь Романовский
Описание: Документальный фильм о гастролях Федора Шаляпина в Швеции (по книге Н. Горбунова "По скандинавскому следу Шаляпина")
В фильме использованы статьи и фотографии периода скандинавского турне Шаляпина, а также интервью с внучкой Великого певца - Наташей Фиерфилд.
Доп. информация: Сценарий фильма написал Николай Горбунов - автор книг о зарубежном периоде жизни Ф.И.Шаляпина:
1. Федор Шаляпин в Японии и Китае (2002)
2. По скандинавскому следу Шаляпина (2008)
3. Федор Шаляпин: от Казани до Стокгольма (2013)
4. Федор Шаляпин на Балканах (2014)
5. Федор Шаляпин в Австралии и Новой Зеландии (2015)
качество: DVDRip
формат: AVI
Видео: XviD, 720x544, 4:3, 0.145 bit/pixel, 1422 Kbps, 25 fps
Аудио: MP3, 192 kbps, 48 kHz, 2 channels

Отчет MediaInfo

Общее
Полное имя : C:\Великий скиталец\Федор Шаляпин - Великий скиталец (2009).avi
Формат : AVI
Формат/Информация : Audio Video Interleave
Размер файла : 699 Мбайт
Продолжительность : 1 ч. 0 м.
Общий поток : 1624 Кбит/сек
Программа кодирования : VirtualDubMod 1.5.4.1 (build 2178/release)
Библиотека кодирования : VirtualDub build 35491/release
Видео
Идентификатор : 0
Формат : MPEG-4 Visual
Профиль формата : Advanced Simple@L5
Параметр BVOP формата : 1
Параметр QPel формата : Нет
Параметр GMC формата : Без точки перехода
Параметр матрицы формата : Выборочная
Идентификатор кодека : XVID
Идентификатор кодека/Подсказка : XviD
Продолжительность : 1 ч. 0 м.
Битрейт : 1422 Кбит/сек
Ширина : 720 пикселей
Высота : 544 пикселя
Соотношение сторон : 4:3
Частота кадров : 25,000 кадров/сек
Цветовое пространство : YUV
Субдискретизация насыщенности : 4:2:0
Битовая глубина : 8 бит
Тип развёртки : Прогрессивная
Метод сжатия : С потерями
Бит/(Пиксели*Кадры) : 0.145
Размер потока : 612 Мбайт (88%)
Библиотека кодирования : XviD 1.2.1 (UTC 2008-12-04)
Аудио
Идентификатор : 1
Формат : MPEG Audio
Версия формата : Version 1
Профиль формата : Layer 3
Режим : Joint stereo
Расширение режима : MS Stereo
Идентификатор кодека : 55
Идентификатор кодека/Подсказка : MP3
Продолжительность : 1 ч. 0 м.
Вид битрейта : Постоянный
Битрейт : 192 Кбит/сек
Каналы : 2 канала
Частота : 48,0 КГц
Метод сжатия : С потерями
Размер потока : 82,7 Мбайт (12%)
Выравнивание : Соединение по промежуткам
Продолжительность промежутка : 40 мс. (1,00 видеокадр)
Время предзагрузки промежутка : 504 мс.
Библиотека кодирования : LAME3.98.2

Скриншоты

[teatrix.ru].t21581.torrent 
Торрент: Зарегистрирован [ 2016-03-20 12:38 ] · A4FA4375DCA1350BD36A0FE4E37194140886E5BA

Скачать .torrent

Скачать

14 KB

Статус: проверено
Скачан: 0 раз
Размер: 699 MB
terms.php



Быстрый ответ

Имя:

      
Для отправки сообщений необходимо включить JavaScript
Показать сообщения:    

Текущее время: 08-Дек 07:08

Часовой пояс: UTC + 3


Вы можете начинать темы
Вы можете отвечать на сообщения
Вы не можете редактировать свои сообщения
Вы не можете удалять свои сообщения
Вы не можете голосовать в опросах
Вы не можете прикреплять файлы к сообщениям
Вы можете скачивать файлы