(Classical) Johann Stamitz - Violin Sonatas Op.6 - Stephan Schardt, Michael Behringer - 2014, FLAC (image+.cue) lossless


 

[Цитировать]

Johann Stamitz - Violin Sonatas Op.6 - Stephan Schardt, Michael Behringer
Жанр: Classical
Страна-производитель диска: Germany
Год издания диска: 2014
Издатель (лейбл): Musikproduktion Dabringhaus und Grimm
Номер по каталогу: MDG 903 1862-6
Дата записи: 2014
Аудиокодек: FLAC
Тип рипа: image+.cue
Битрейт аудио: lossless
Продолжительность: 67:16
Источник: собственный рип
Наличие сканов в содержимом раздачи: да
Треклист:
Johann Stamitz (1717-1757)
Violin Sonatas, Op.6
[1]-[3] Sonata I in G major
[4]-[6] Sonata II in C major
[7]-[9] Sonata III in E flat major
[10]-[12] Sonata IV in A major
[13]-[15] Sonata V in D major
[16]-[18] Sonata VI in B flat major
Исполнители:
Stephan Schardt violin
Michael Behringer harpsichord

Лог создания рипа

Exact Audio Copy V1.0 beta 3 from 29. August 2011
EAC extraction logfile from 27. June 2015, 15:33
Stephan Schardt, Michael Behringer / Johann Stamitz - Violin Sonatas Op.6
Used drive : HL-DT-STDVDRAM GU70N Adapter: 0 ID: 0
Read mode : Secure
Utilize accurate stream : Yes
Defeat audio cache : Yes
Make use of C2 pointers : No
Read offset correction : 48
Overread into Lead-In and Lead-Out : No
Fill up missing offset samples with silence : Yes
Delete leading and trailing silent blocks : No
Null samples used in CRC calculations : Yes
Used interface : Native Win32 interface for Win NT & 2000
Used output format : User Defined Encoder
Selected bitrate : 128 kBit/s
Quality : High
Add ID3 tag : No
Command line compressor : C:\Program Files (x86)\Exact Audio Copy\Flac\flac.exe
Additional command line options : -V -8 -T "Date=%year%" -T "Genre=%genre%" %source%
TOC of the extracted CD
Track | Start | Length | Start sector | End sector
---------------------------------------------------------
1 | 0:00.00 | 1:33.48 | 0 | 7022
2 | 1:33.48 | 3:23.06 | 7023 | 22253
3 | 4:56.54 | 2:45.22 | 22254 | 34650
4 | 7:42.01 | 4:18.12 | 34651 | 54012
5 | 12:00.13 | 3:38.22 | 54013 | 70384
6 | 15:38.35 | 4:25.43 | 70385 | 90302
7 | 20:04.03 | 3:33.00 | 90303 | 106277
8 | 23:37.03 | 4:00.70 | 106278 | 124347
9 | 27:37.73 | 3:12.35 | 124348 | 138782
10 | 30:50.33 | 4:23.51 | 138783 | 158558
11 | 35:14.09 | 4:43.21 | 158559 | 179804
12 | 39:57.30 | 5:15.72 | 179805 | 203501
13 | 45:13.27 | 4:17.39 | 203502 | 222815
14 | 49:30.66 | 3:26.69 | 222816 | 238334
15 | 52:57.60 | 3:29.50 | 238335 | 254059
16 | 56:27.35 | 3:16.69 | 254060 | 268828
17 | 59:44.29 | 3:45.29 | 268829 | 285732
18 | 63:29.58 | 3:44.41 | 285733 | 302573
Range status and errors
Selected range
Filename C:\temp\Johann Stamitz - Violin Sonatas Op.6 - Schardt, Behringer\Johann Stamitz - Violin Sonatas Op.6.wav
Peak level 99.0 %
Extraction speed 2.2 X
Range quality 100.0 %
Test CRC AA573D28
Copy CRC AA573D28
Copy OK
No errors occurred
AccurateRip summary
Track 1 accurately ripped (confidence 1) [EC03975E] (AR v2)
Track 2 accurately ripped (confidence 1) [519F4485] (AR v2)
Track 3 accurately ripped (confidence 1) [D0F0905A] (AR v2)
Track 4 accurately ripped (confidence 1) [CB7B84A1] (AR v2)
Track 5 accurately ripped (confidence 1) [3EB14648] (AR v2)
Track 6 accurately ripped (confidence 1) [B342CB00] (AR v2)
Track 7 accurately ripped (confidence 1) [9008DA84] (AR v2)
Track 8 accurately ripped (confidence 1) [5892A3CF] (AR v2)
Track 9 accurately ripped (confidence 1) [E5900472] (AR v2)
Track 10 accurately ripped (confidence 1) [6BB80A2E] (AR v2)
Track 11 accurately ripped (confidence 1) [41ACDC79] (AR v2)
Track 12 accurately ripped (confidence 1) [EFFF714E] (AR v2)
Track 13 accurately ripped (confidence 1) [D7382550] (AR v2)
Track 14 accurately ripped (confidence 1) [ABB8D27C] (AR v2)
Track 15 accurately ripped (confidence 1) [8730660C] (AR v2)
Track 16 accurately ripped (confidence 1) [A7B57B90] (AR v2)
Track 17 accurately ripped (confidence 1) [CE0CCCC6] (AR v2)
Track 18 accurately ripped (confidence 1) [704B8BD6] (AR v2)
All tracks accurately ripped
End of status report
==== Log checksum 779737764FAB7D320322409A95AE21ED8667294C431E540A776E48210B6C9546 ====



Показать сообщения:    

Текущее время: 07-Дек 15:30

Часовой пояс: UTC + 3


Вы не можете начинать темы
Вы не можете отвечать на сообщения
Вы не можете редактировать свои сообщения
Вы не можете удалять свои сообщения
Вы не можете голосовать в опросах
Вы не можете прикреплять файлы к сообщениям
Вы не можете скачивать файлы