(Classical, Orchestral, Choral) Holst - The Collector's Edition (Andre Previn, Malcolm Sargent, Yehudi Menuhin, Charles Groves, Imogen Holst, David Willcocks, Adrian Boult) - 2012, FLAC (image+.cue), lossless


Статистика раздачи [Обновить пиров]
Размер:  1.76 GB   |    Зарегистрирован:  8 месяцев 20 дней   |    Скачан:  1 раз

Полного источника не было: 1 месяц 9 дней

 
   
 
 
 

[Цитировать]

Holst - The Collector's Edition
Жанр: Classical, Orchestral, Choral
Страна-производитель диска: EU
Год издания диска: 2012
Издатель (лейбл): EMI Classics
Номер по каталогу: 50999 4 40471 2 2
Дата записи: 1956-1993
Аудиокодек: FLAC
Тип рипа: image+.cue
Битрейт аудио: lossless
Продолжительность: 448.24
Источник: собственный рип
Наличие сканов в содержимом раздачи: да

CD1:Треклист:

The Planets - Suite Op. 32 H125
01. I. Mars , the Bringer of War: Allegro
02. II. Venus, the Bringer of Peace: Adagio
03. III. Mercury, the Winged Messenger: Vivace
04. IV. Jupiter, the Bringer of Jollity: Allegro giocoso
05. V. Saturn, the Bringer of Old Age: Adagio
06. VI. Uranus, the Magician: Allegro
07. VII. Neptune, the Mystic: Andante
The Perfect Fool Op. 39 H150
08. Andante -
09. Danse of Spirits of Earth -
10. Danse of Spirits of Water
11. Danse of Spirits of Fire
12. Egdon Heath Op. 47 H172
Total 73.55

Лог создания рипа:

Exact Audio Copy V1.0 beta 3 from 29. August 2011
Отчёт EAC об извлечении, выполненном 25. июня 2015, 22:15
Gustav Holst / The Collector's Edition - CD 1
Дисковод: Optiarc DVD RW AD-7260S Adapter: 0 ID: 1
Режим чтения : Достоверность
Использование точного потока : Да
Отключение кэша аудио : Да
Использование указателей C2 : Нет
Коррекция смещения при чтении : 48
Способность читать области Lead-in и Lead-out : Нет
Заполнение пропущенных сэмплов тишиной : Да
Удаление блоков с тишиной в начале и конце : Нет
При вычислениях CRC использовались нулевые сэмплы : Да
Интерфейс : Встроенный Win32-интерфейс для Win NT/2000
Выходной формат : Пользовательский кодировщик
Выбранный битрейт : 896 kBit/s
Качество : Высокий
Добавление ID3-тега : Нет
Утилита сжатия : C:\Program Files\FLAC Frontend\tools\flac.exe
Дополнительные параметры : -V -8 -T "Date=%year%" -T "Genre=%genre%" %source%
TOC извлечённого CD
Трек | Старт | Длительность | Начальный сектор | Конечный сектор
---------------------------------------------------------------------
1 | 0:00.00 | 8:02.60 | 0 | 36209
2 | 8:02.60 | 7:26.62 | 36210 | 69721
3 | 15:29.47 | 3:48.19 | 69722 | 86840
4 | 19:17.66 | 7:59.12 | 86841 | 122777
5 | 27:17.03 | 8:23.01 | 122778 | 160503
6 | 35:40.04 | 6:27.03 | 160504 | 189531
7 | 42:07.07 | 6:26.58 | 189532 | 218539
8 | 48:33.65 | 0:56.45 | 218540 | 222784
9 | 49:30.35 | 3:39.09 | 222785 | 239218
10 | 53:09.44 | 2:46.53 | 239219 | 251721
11 | 55:56.22 | 3:19.74 | 251722 | 266720
12 | 59:16.21 | 14:38.17 | 266721 | 332587
Характеристики диапазона извлечения и сообщения об ошибках
Выбранный диапазон
Имя файла D:\EAC\Мои раздачи\Holst - The Collector's Edition\CD1\Gustav Holst - The Collector's Edition - CD 1.wav
Пиковый уровень 98.2 %
Скорость извлечения 4.3 X
Качество диапазона 99.9 %
CRC теста 6F0B331E
CRC копии 6F0B331E
Копирование... OK
Ошибок не произошло
AccurateRip: сводка
Трек 1 : извлечено точно (доверие 14) [8F1320C9] (AR v2)
Трек 2 : извлечено точно (доверие 14) [99B5703B] (AR v2)
Трек 3 : извлечено точно (доверие 14) [D84075F2] (AR v2)
Трек 4 : извлечено точно (доверие 14) [C793FA43] (AR v2)
Трек 5 : извлечено точно (доверие 14) [48EA5626] (AR v2)
Трек 6 : извлечено точно (доверие 14) [F1A9D9B3] (AR v2)
Трек 7 : извлечено точно (доверие 14) [019683B7] (AR v2)
Трек 8 : извлечено точно (доверие 14) [90EF1706] (AR v2)
Трек 9 : извлечено точно (доверие 14) [58EC45B0] (AR v2)
Трек 10 : извлечено точно (доверие 14) [BF08E89F] (AR v2)
Трек 11 : извлечено точно (доверие 14) [389BCCC0] (AR v2)
Трек 12 : извлечено точно (доверие 14) [C1E82EDC] (AR v2)
Все треки извлечены точно
Конец отчёта
==== Контрольная сумма отчёта 16BBBE569E8AE0E2C0E5E8645E2524C928106E7DCC25EE53D17881BB81437C2B ====

CD2:Треклист:

01. A Somerset Rhapsody Op. 21 No. 2 H87
Brook Green Suite H190
02. I. Prelude
03. II. Air
04. III. Dance
A Fugal Concerto Op. 40 No. 2 H152
05. I. Moderato
06. II. Adagio
07. III. Allegro
Beni Mora (Oriental Suite) Op. 29 No. 1 H107
08. I. First Dance
09. II. Second Dance
10. III. Finale: In the Street of the Ouled Nails
St. Paul's Suite Op. 29 No. 2 H118
11. I. Jig: Vivace
12. II. Ostinato: Presto
13. III. Intermezzo: Andante con moto - Vivace
14. IV. Finale (The Dargason): Allegro
Hymns from the Rig Veda - 2nd Group Op. 26 No. 2 H98
15. I. To Varuna (God of Water)
16. II. To Agni (God of Fire)
17. III. Funeral Chant
18. Ode to Death Op. 38 H144 (Whitman)
Total 76.27

Лог создания рипа:

Exact Audio Copy V1.0 beta 3 from 29. August 2011
Отчёт EAC об извлечении, выполненном 25. июня 2015, 23:35
Gustav Holst / The Collector's Edition - CD2
Дисковод: Optiarc DVD RW AD-7260S Adapter: 0 ID: 1
Режим чтения : Достоверность
Использование точного потока : Да
Отключение кэша аудио : Да
Использование указателей C2 : Нет
Коррекция смещения при чтении : 48
Способность читать области Lead-in и Lead-out : Нет
Заполнение пропущенных сэмплов тишиной : Да
Удаление блоков с тишиной в начале и конце : Нет
При вычислениях CRC использовались нулевые сэмплы : Да
Интерфейс : Встроенный Win32-интерфейс для Win NT/2000
Выходной формат : Пользовательский кодировщик
Выбранный битрейт : 896 kBit/s
Качество : Высокий
Добавление ID3-тега : Нет
Утилита сжатия : C:\Program Files\FLAC Frontend\tools\flac.exe
Дополнительные параметры : -V -8 -T "Date=%year%" -T "Genre=%genre%" %source%
TOC извлечённого CD
Трек | Старт | Длительность | Начальный сектор | Конечный сектор
---------------------------------------------------------------------
1 | 0:00.00 | 9:37.73 | 0 | 43347
2 | 9:37.73 | 1:24.73 | 43348 | 49720
3 | 11:02.71 | 2:34.57 | 49721 | 61327
4 | 13:37.53 | 2:24.49 | 61328 | 72176
5 | 16:02.27 | 2:07.06 | 72177 | 81707
6 | 18:09.33 | 3:13.72 | 81708 | 96254
7 | 21:23.30 | 3:12.11 | 96255 | 110665
8 | 24:35.41 | 5:24.12 | 110666 | 134977
9 | 29:59.53 | 2:55.25 | 134978 | 148127
10 | 32:55.03 | 5:54.00 | 148128 | 174677
11 | 38:49.03 | 3:18.34 | 174678 | 189561
12 | 42:07.37 | 1:46.72 | 189562 | 197583
13 | 43:54.34 | 4:03.16 | 197584 | 215824
14 | 47:57.50 | 3:29.72 | 215825 | 231571
15 | 51:27.47 | 7:54.67 | 231572 | 267188
16 | 59:22.39 | 2:02.70 | 267189 | 276408
17 | 61:25.34 | 3:53.65 | 276409 | 293948
18 | 65:19.24 | 11:07.23 | 293949 | 343996
Характеристики диапазона извлечения и сообщения об ошибках
Выбранный диапазон
Имя файла D:\EAC\Мои раздачи\Holst - The Collector's Edition\CD2\Gustav Holst - The Collector's Edition - CD2.wav
Пиковый уровень 97.7 %
Скорость извлечения 4.4 X
Качество диапазона 100.0 %
CRC теста 9B5F6C84
CRC копии 9B5F6C84
Копирование... OK
Ошибок не произошло
AccurateRip: сводка
Трек 1 : извлечено точно (доверие 14) [06C50AE5] (AR v2)
Трек 2 : извлечено точно (доверие 14) [E0919DC9] (AR v2)
Трек 3 : извлечено точно (доверие 14) [A3DFA38E] (AR v2)
Трек 4 : извлечено точно (доверие 14) [7C72C49B] (AR v2)
Трек 5 : извлечено точно (доверие 14) [CA9BA985] (AR v2)
Трек 6 : извлечено точно (доверие 14) [589AB951] (AR v2)
Трек 7 : извлечено точно (доверие 14) [2012988F] (AR v2)
Трек 8 : извлечено точно (доверие 14) [148E30F7] (AR v2)
Трек 9 : извлечено точно (доверие 14) [1E258D3A] (AR v2)
Трек 10 : извлечено точно (доверие 14) [9E14B8C4] (AR v2)
Трек 11 : извлечено точно (доверие 14) [6A4A97BC] (AR v2)
Трек 12 : извлечено точно (доверие 14) [D3DC9F2C] (AR v2)
Трек 13 : извлечено точно (доверие 14) [B47B9F6C] (AR v2)
Трек 14 : извлечено точно (доверие 14) [441DBC57] (AR v2)
Трек 15 : извлечено точно (доверие 14) [DAD7D5F5] (AR v2)
Трек 16 : извлечено точно (доверие 14) [3775E054] (AR v2)
Трек 17 : извлечено точно (доверие 14) [25FBA5E2] (AR v2)
Трек 18 : извлечено точно (доверие 14) [693B47BC] (AR v2)
Все треки извлечены точно
Конец отчёта
==== Контрольная сумма отчёта C0A2CF082D98FBFBB2824401A239708B5DDE81968F983D05FC69BE43D24BAC87 ====

CD3:Треклист:

01. Psalm 86 H117 No. 1
02. A Choral Fantasia Op. 51 H177
Suites for Military Band
First Suite in E flat Op. 28 No. 1 H105
03. I. Chaconne
04. II. Intermezzo
05. III. March
Second Suite in F Op. 28 No. 2 H106
06. I. March
07. II. Song without Words
08. III. The Song of the Blacksmith
09. IV. Fantasia on the Dargsson
A Moorside Suite H173
10. I. Scherzo
11. II. Nocturne
12. III. March
Hammersmith Op. 52 H. 178
13. I. Prelude
14. II. Scherzo
Total 74.35

Лог создания рипа:

Exact Audio Copy V1.0 beta 3 from 29. August 2011
Отчёт EAC об извлечении, выполненном 26. июня 2015, 10:33
Gustav Holst / The Collector's Edition - CD3
Дисковод: Optiarc DVD RW AD-7260S Adapter: 0 ID: 1
Режим чтения : Достоверность
Использование точного потока : Да
Отключение кэша аудио : Да
Использование указателей C2 : Нет
Коррекция смещения при чтении : 48
Способность читать области Lead-in и Lead-out : Нет
Заполнение пропущенных сэмплов тишиной : Да
Удаление блоков с тишиной в начале и конце : Нет
При вычислениях CRC использовались нулевые сэмплы : Да
Интерфейс : Встроенный Win32-интерфейс для Win NT/2000
Выходной формат : Пользовательский кодировщик
Выбранный битрейт : 896 kBit/s
Качество : Высокий
Добавление ID3-тега : Нет
Утилита сжатия : C:\Program Files\FLAC Frontend\tools\flac.exe
Дополнительные параметры : -V -8 -T "Date=%year%" -T "Genre=%genre%" %source%
TOC извлечённого CD
Трек | Старт | Длительность | Начальный сектор | Конечный сектор
---------------------------------------------------------------------
1 | 0:00.00 | 8:04.74 | 0 | 36373
2 | 8:04.74 | 17:15.52 | 36374 | 114050
3 | 25:20.51 | 3:59.12 | 114051 | 131987
4 | 29:19.63 | 2:57.06 | 131988 | 145268
5 | 32:16.69 | 3:08.67 | 145269 | 159435
6 | 35:25.61 | 4:45.54 | 159436 | 180864
7 | 40:11.40 | 1:55.65 | 180865 | 189554
8 | 42:07.30 | 1:23.26 | 189555 | 195805
9 | 43:30.56 | 3:39.16 | 195806 | 212246
10 | 47:09.72 | 3:17.04 | 212247 | 227025
11 | 50:27.01 | 6:22.72 | 227026 | 255747
12 | 56:49.73 | 4:20.24 | 255748 | 275271
13 | 61:10.22 | 3:37.69 | 275272 | 291615
14 | 64:48.16 | 9:46.52 | 291616 | 335617
Характеристики диапазона извлечения и сообщения об ошибках
Выбранный диапазон
Имя файла D:\EAC\Мои раздачи\Holst - The Collector's Edition\CD3\Gustav Holst - The Collector's Edition - CD3.wav
Пиковый уровень 89.8 %
Скорость извлечения 4.4 X
Качество диапазона 100.0 %
CRC теста 603AED28
CRC копии 603AED28
Копирование... OK
Ошибок не произошло
AccurateRip: сводка
Трек 1 : извлечено точно (доверие 12) [A10C2643] (AR v2)
Трек 2 : извлечено точно (доверие 11) [07CE55ED] (AR v2)
Трек 3 : извлечено точно (доверие 13) [3FB1BBF9] (AR v2)
Трек 4 : извлечено точно (доверие 13) [2D2FBB24] (AR v2)
Трек 5 : извлечено точно (доверие 13) [B050AE62] (AR v2)
Трек 6 : извлечено точно (доверие 13) [C773C2CF] (AR v2)
Трек 7 : извлечено точно (доверие 13) [C92358BF] (AR v2)
Трек 8 : извлечено точно (доверие 13) [CAE43A9A] (AR v2)
Трек 9 : извлечено точно (доверие 13) [0B2951F3] (AR v2)
Трек 10 : извлечено точно (доверие 13) [61DC87D4] (AR v2)
Трек 11 : извлечено точно (доверие 13) [5ED1F197] (AR v2)
Трек 12 : извлечено точно (доверие 13) [7431C600] (AR v2)
Трек 13 : извлечено точно (доверие 13) [1885993D] (AR v2)
Трек 14 : извлечено точно (доверие 13) [5DE4A45D] (AR v2)
Все треки извлечены точно
Конец отчёта
==== Контрольная сумма отчёта A8B87310F5F6447B14D7FB364C0DEA4500CA638C2F1548B10D8C245FA014A87F ====

CD4:Треклист:

Hymns from the Rig Veda - 4th Group Op. 26 No. 4 H100
01. III. Hymn to Manas
02. The Homecoming H120 (Hardy)
03. A Dirge for Two Veterans H121 (Whitman)
Six Choral Folk Songs H136
04. I. I sowed the seeds of love
05. III. Matthew, Mark, Luke and John
06. IV. The Song of the Blacksmith
07. V. I love my love
08. VI. Swansea Town
Six Choruses Op. 53 H186
09. I. Intercession
10. II. Good Friday
11. III. Drinking Song
12. IV. A Love Song
13. VI. Before Sleep
Eight Canons H187 (Medieval Latin, trans. Waddell)
14. III. The Fields of Sorrow
15. IV. David's Lament for Jonathan
16. VI. Truth of all Truth
17. Bring Us in Good Ale Op. 34 No. 4 H131
Vedic Hymns - 1st Group Op. 24 H90
18. II. Varuna
Three Festival Choruses Op. 36a H134
19. II. Turn back, O man (Clifford Bax)
20. Lullay my liking Op. 34 No. 2 H129
Three Carols H133
21. II. Christmas Song: Personent hodie
22. Hymn: In the bleak midwinter
Total 71.19

Лог создания рипа:

Exact Audio Copy V1.0 beta 3 from 29. August 2011
Отчёт EAC об извлечении, выполненном 26. июня 2015, 11:27
Gustav Holst / The Collector's Edition - CD4
Дисковод: Optiarc DVD RW AD-7260S Adapter: 0 ID: 1
Режим чтения : Достоверность
Использование точного потока : Да
Отключение кэша аудио : Да
Использование указателей C2 : Нет
Коррекция смещения при чтении : 48
Способность читать области Lead-in и Lead-out : Нет
Заполнение пропущенных сэмплов тишиной : Да
Удаление блоков с тишиной в начале и конце : Нет
При вычислениях CRC использовались нулевые сэмплы : Да
Интерфейс : Встроенный Win32-интерфейс для Win NT/2000
Выходной формат : Пользовательский кодировщик
Выбранный битрейт : 896 kBit/s
Качество : Высокий
Добавление ID3-тега : Нет
Утилита сжатия : C:\Program Files\FLAC Frontend\tools\flac.exe
Дополнительные параметры : -V -8 -T "Date=%year%" -T "Genre=%genre%" %source%
TOC извлечённого CD
Трек | Старт | Длительность | Начальный сектор | Конечный сектор
---------------------------------------------------------------------
1 | 0:00.00 | 3:48.73 | 0 | 17172
2 | 3:48.73 | 6:02.26 | 17173 | 44348
3 | 9:51.24 | 6:14.42 | 44349 | 72440
4 | 16:05.66 | 3:06.45 | 72441 | 86435
5 | 19:12.36 | 2:24.37 | 86436 | 97272
6 | 21:36.73 | 1:16.38 | 97273 | 103010
7 | 22:53.36 | 4:04.73 | 103011 | 121383
8 | 26:58.34 | 2:50.31 | 121384 | 134164
9 | 29:48.65 | 3:44.42 | 134165 | 151006
10 | 33:33.32 | 4:19.52 | 151007 | 170483
11 | 37:53.09 | 2:11.02 | 170484 | 180310
12 | 40:04.11 | 2:12.03 | 180311 | 190213
13 | 42:16.14 | 3:23.04 | 190214 | 205442
14 | 45:39.18 | 1:02.14 | 205443 | 210106
15 | 46:41.32 | 1:20.13 | 210107 | 216119
16 | 48:01.45 | 4:01.35 | 216120 | 234229
17 | 52:03.05 | 1:04.12 | 234230 | 239041
18 | 53:07.17 | 3:26.36 | 239042 | 254527
19 | 56:33.53 | 4:26.11 | 254528 | 274488
20 | 60:59.64 | 3:42.15 | 274489 | 291153
21 | 64:42.04 | 2:40.50 | 291154 | 303203
22 | 67:22.54 | 3:55.68 | 303204 | 320896
Характеристики диапазона извлечения и сообщения об ошибках
Выбранный диапазон
Имя файла D:\EAC\Мои раздачи\Holst - The Collector's Edition\CD4\Gustav Holst - The Collector's Edition - CD4.wav
Пиковый уровень 92.4 %
Скорость извлечения 4.2 X
Качество диапазона 100.0 %
CRC теста 5A4CDC42
CRC копии 5A4CDC42
Копирование... OK
Ошибок не произошло
AccurateRip: сводка
Трек 1 : извлечено точно (доверие 12) [04FD8BB8] (AR v2)
Трек 2 : извлечено точно (доверие 12) [E745A25B] (AR v2)
Трек 3 : извлечено точно (доверие 11) [DD8CC8D4] (AR v2)
Трек 4 : извлечено точно (доверие 12) [FF0B084C] (AR v2)
Трек 5 : извлечено точно (доверие 12) [BCAAF846] (AR v2)
Трек 6 : извлечено точно (доверие 12) [6DE04CFA] (AR v2)
Трек 7 : извлечено точно (доверие 12) [65BDFF7D] (AR v2)
Трек 8 : извлечено точно (доверие 12) [A1E02B0F] (AR v2)
Трек 9 : извлечено точно (доверие 11) [43731170] (AR v2)
Трек 10 : извлечено точно (доверие 11) [86E63F61] (AR v2)
Трек 11 : извлечено точно (доверие 11) [FFC51DE2] (AR v2)
Трек 12 : извлечено точно (доверие 11) [89E2B857] (AR v2)
Трек 13 : извлечено точно (доверие 11) [1F2039CF] (AR v2)
Трек 14 : извлечено точно (доверие 11) [4CA30B8E] (AR v2)
Трек 15 : извлечено точно (доверие 11) [E1DC2A89] (AR v2)
Трек 16 : извлечено точно (доверие 11) [E9BE5F6F] (AR v2)
Трек 17 : извлечено точно (доверие 12) [5FEE9E15] (AR v2)
Трек 18 : извлечено точно (доверие 12) [0D7A21F9] (AR v2)
Трек 19 : извлечено точно (доверие 12) [029D6339] (AR v2)
Трек 20 : извлечено точно (доверие 12) [CC9E01D1] (AR v2)
Трек 21 : извлечено точно (доверие 12) [878049CC] (AR v2)
Трек 22 : извлечено точно (доверие 12) [02D28F1A] (AR v2)
Все треки извлечены точно
Конец отчёта
==== Контрольная сумма отчёта 477D83F658105345ECB5D0AE61B9FC1422E10F99ADB77C0B4937F46178E6C621 ====

CD5:Треклист:

The Hymn of Jesus Op. 37, H140
01. I. Prelude: Vexilla Regis prodeunt
02. II. Hymn: Glory to thee, Father!
03. III. Hymn: Fain would I be saved
04. IV. Hymn: Divine Grace is dancing
05. V. Hymn: Give ye heed unto my dancing
06. Short Festival Te Deum H145
Choral Symphony Op. 41 H155 (Keats)
07. Prelude: Invocation to Pan
08. I. Song and Bacchanal
09. II. Ode on a Grecian Urn
10. III. Scherzo: Fancy - Folly's Song
11. IV. Finale
Total 77.05

Лог создания рипа:

Exact Audio Copy V1.0 beta 3 from 29. August 2011
Отчёт EAC об извлечении, выполненном 26. июня 2015, 13:15
Gustav Holst / The Collector's Edition - CD5
Дисковод: Optiarc DVD RW AD-7260S Adapter: 0 ID: 1
Режим чтения : Достоверность
Использование точного потока : Да
Отключение кэша аудио : Да
Использование указателей C2 : Нет
Коррекция смещения при чтении : 48
Способность читать области Lead-in и Lead-out : Нет
Заполнение пропущенных сэмплов тишиной : Да
Удаление блоков с тишиной в начале и конце : Нет
При вычислениях CRC использовались нулевые сэмплы : Да
Интерфейс : Встроенный Win32-интерфейс для Win NT/2000
Выходной формат : Пользовательский кодировщик
Выбранный битрейт : 896 kBit/s
Качество : Высокий
Добавление ID3-тега : Нет
Утилита сжатия : C:\Program Files\FLAC Frontend\tools\flac.exe
Дополнительные параметры : -V -8 -T "Date=%year%" -T "Genre=%genre%" %source%
TOC извлечённого CD
Трек | Старт | Длительность | Начальный сектор | Конечный сектор
---------------------------------------------------------------------
1 | 0:00.00 | 5:15.11 | 0 | 23635
2 | 5:15.11 | 2:33.63 | 23636 | 35173
3 | 7:48.74 | 2:09.15 | 35174 | 44863
4 | 9:58.14 | 3:31.21 | 44864 | 60709
5 | 13:29.35 | 8:42.20 | 60710 | 99879
6 | 22:11.55 | 4:42.36 | 99880 | 121065
7 | 26:54.16 | 2:54.70 | 121066 | 134185
8 | 29:49.11 | 10:01.18 | 134186 | 179278
9 | 39:50.29 | 12:58.06 | 179279 | 237634
10 | 52:48.35 | 5:32.23 | 237635 | 262557
11 | 58:20.58 | 18:44.53 | 262558 | 346910
Характеристики диапазона извлечения и сообщения об ошибках
Выбранный диапазон
Имя файла D:\EAC\Мои раздачи\Holst - The Collector's Edition\CD5\Gustav Holst - The Collector's Edition - CD5.wav
Пиковый уровень 93.1 %
Скорость извлечения 4.5 X
Качество диапазона 100.0 %
CRC теста 12D234ED
CRC копии 12D234ED
Копирование... OK
Ошибок не произошло
AccurateRip: сводка
Трек 1 : извлечено точно (доверие 12) [AED53FCB] (AR v2)
Трек 2 : извлечено точно (доверие 12) [63DE98C2] (AR v2)
Трек 3 : извлечено точно (доверие 12) [944FF4A9] (AR v2)
Трек 4 : извлечено точно (доверие 12) [0B89A81E] (AR v2)
Трек 5 : извлечено точно (доверие 12) [0D7FFAB4] (AR v2)
Трек 6 : извлечено точно (доверие 13) [9D38082C] (AR v2)
Трек 7 : извлечено точно (доверие 12) [1D12FB27] (AR v2)
Трек 8 : извлечено точно (доверие 12) [7F5BD74E] (AR v2)
Трек 9 : извлечено точно (доверие 12) [1D4FDC29] (AR v2)
Трек 10 : извлечено точно (доверие 12) [BD66DC84] (AR v2)
Трек 11 : извлечено точно (доверие 12) [078423C1] (AR v2)
Все треки извлечены точно
Конец отчёта
==== Контрольная сумма отчёта FB80CE753CD27A462738F22EC0FB39EE6E0DAF4AD5F67DA432D370F2A6118583 ====

CD6:Треклист:

The Wandering Scholar Op. 50 H176
01. I. When boughs are green in April
02. II. Ho there, old dog
03. III. The most beautiful piece
04. IV. The time, then, was well chosen
05. V. Someone is coming!
06. VI. Before that I was twenty
07. VII. So learned a clerk
08. VIII. Heigho, a pretty knave!
09. IX. He'll lie all day in the sun
10. X. As I was walking
11. XI. Monster! Villain!
At the Boar's Head Op. 42 H156
12. 1. Of all the birds
13. 2. Are not you a coward?
14. 3. I am a rogue
15. 4. We two saw your four
16. 5. I know you all
17. 6. Do thou stand
18. 7. I' faith, sweetheart
19. 8. Devouring Time
20. 9. How now! What news?
21. 10. Harry is valiant
22. 11. For God's sake
23. 12. Now comes in the sweetest morsel
Total 75.46

Лог создания рипа:

Exact Audio Copy V1.0 beta 3 from 29. August 2011
Отчёт EAC об извлечении, выполненном 26. июня 2015, 18:40
Gustav Holst / The Collector's Edition - CD6
Дисковод: Optiarc DVD RW AD-7260S Adapter: 0 ID: 1
Режим чтения : Достоверность
Использование точного потока : Да
Отключение кэша аудио : Да
Использование указателей C2 : Нет
Коррекция смещения при чтении : 48
Способность читать области Lead-in и Lead-out : Нет
Заполнение пропущенных сэмплов тишиной : Да
Удаление блоков с тишиной в начале и конце : Нет
При вычислениях CRC использовались нулевые сэмплы : Да
Интерфейс : Встроенный Win32-интерфейс для Win NT/2000
Выходной формат : Пользовательский кодировщик
Выбранный битрейт : 896 kBit/s
Качество : Высокий
Добавление ID3-тега : Нет
Утилита сжатия : C:\Program Files\FLAC Frontend\tools\flac.exe
Дополнительные параметры : -V -8 -T "Date=%year%" -T "Genre=%genre%" %source%
TOC извлечённого CD
Трек | Старт | Длительность | Начальный сектор | Конечный сектор
---------------------------------------------------------------------
1 | 0:00.00 | 1:22.30 | 0 | 6179
2 | 1:22.30 | 1:39.08 | 6180 | 13612
3 | 3:01.38 | 1:52.05 | 13613 | 22017
4 | 4:53.43 | 2:05.57 | 22018 | 31449
5 | 6:59.25 | 1:37.40 | 31450 | 38764
6 | 8:36.65 | 3:32.38 | 38765 | 54702
7 | 12:09.28 | 1:54.05 | 54703 | 63257
8 | 14:03.33 | 3:22.37 | 63258 | 78444
9 | 17:25.70 | 1:34.25 | 78445 | 85519
10 | 19:00.20 | 3:52.03 | 85520 | 102922
11 | 22:52.23 | 1:42.55 | 102923 | 110627
12 | 24:35.03 | 3:24.72 | 110628 | 125999
13 | 28:00.00 | 1:28.20 | 126000 | 132619
14 | 29:28.20 | 5:07.05 | 132620 | 155649
15 | 34:35.25 | 3:45.70 | 155650 | 172594
16 | 38:21.20 | 3:50.20 | 172595 | 189864
17 | 42:11.40 | 9:52.20 | 189865 | 234284
18 | 52:03.60 | 4:31.68 | 234285 | 254677
19 | 56:35.53 | 3:27.47 | 254678 | 270249
20 | 60:03.25 | 2:31.15 | 270250 | 281589
21 | 62:34.40 | 7:14.73 | 281590 | 314212
22 | 69:49.38 | 2:43.00 | 314213 | 326437
23 | 72:32.38 | 3:13.40 | 326438 | 340952
Характеристики диапазона извлечения и сообщения об ошибках
Выбранный диапазон
Имя файла D:\EAC\Мои раздачи\Holst - The Collector's Edition\CD6\Gustav Holst - The Collector's Edition - CD6.wav
Пиковый уровень 95.7 %
Скорость извлечения 4.4 X
Качество диапазона 100.0 %
CRC теста D78EBC56
CRC копии D78EBC56
Копирование... OK
Ошибок не произошло
AccurateRip: сводка
Трек 1 : извлечено точно (доверие 11) [E942D6D0] (AR v2)
Трек 2 : извлечено точно (доверие 11) [8502A421] (AR v2)
Трек 3 : извлечено точно (доверие 11) [1D322FCE] (AR v2)
Трек 4 : извлечено точно (доверие 11) [66FCD2CF] (AR v2)
Трек 5 : извлечено точно (доверие 11) [D61BFF28] (AR v2)
Трек 6 : извлечено точно (доверие 11) [8F5FD436] (AR v2)
Трек 7 : извлечено точно (доверие 11) [08CBA515] (AR v2)
Трек 8 : извлечено точно (доверие 11) [D3FE5642] (AR v2)
Трек 9 : извлечено точно (доверие 11) [F922F17E] (AR v2)
Трек 10 : извлечено точно (доверие 11) [47CBABC0] (AR v2)
Трек 11 : извлечено точно (доверие 11) [7ACA7F59] (AR v2)
Трек 12 : извлечено точно (доверие 11) [781FF849] (AR v2)
Трек 13 : извлечено точно (доверие 11) [CCAC0073] (AR v2)
Трек 14 : извлечено точно (доверие 11) [BB6B4A3F] (AR v2)
Трек 15 : извлечено точно (доверие 11) [287A0858] (AR v2)
Трек 16 : извлечено точно (доверие 11) [E7B33F98] (AR v2)
Трек 17 : извлечено точно (доверие 11) [8C178717] (AR v2)
Трек 18 : извлечено точно (доверие 11) [529B0CC9] (AR v2)
Трек 19 : извлечено точно (доверие 11) [1DA1DDF8] (AR v2)
Трек 20 : извлечено точно (доверие 11) [E62E5A2E] (AR v2)
Трек 21 : извлечено точно (доверие 11) [905D6574] (AR v2)
Трек 22 : извлечено точно (доверие 11) [F3E7EFE1] (AR v2)
Трек 23 : извлечено точно (доверие 11) [55565FAA] (AR v2)
Все треки извлечены точно
Конец отчёта
==== Контрольная сумма отчёта D1004252E0D1B88B01FC2B51B895CC3441474D62D75E35028AE9D1BE6788ECE6 ====

Исполнители:

CD1
Geoffrey Mitchell Choir
London Philharmonic Orchestra, Sir Adrian Boult (H125)
London Symphony Orchestra, Andre Previn (H 150, H172)
CD2
Bournemouth Sinfonietta, Norman del Mar (H87, H190)
Jonathan Snowden, flute, David Theodore, oboe
English Chamber Orchestra, Yehudi Menuhin (H152)
BBC Symphony Orchestra, Sir Malcolm Sargent (H114)
Royal Philharmonic Orchestra, Sir Malcolm Sargent (H118)
London Symphony Chorus, Richard Hickox
London Philharmonic Orchestra, Sir Charles Groves (H98, H144)
CD3
Ian Partridge, tenor, Ralph Downes, organ (H117)
Dame Janet Baker, mezzo, Ralph Downes, organ
The Purcell Singers
English Chamber Orchestra, Imogen Holst (H177)
Central Band of the Royal Air Force, Imogen Holst (H105, H106)
BMC (Oxford) Band, Imogen Holst (H173)
Central Band of the Royal Air Force, Wing Commander J.L. Wallace (H178)
CD4
Baccholian Singers of London (H100, H120, H136, H187)
Baccholian Singers of London
Philip Jones Brass Ensemble, Ian Humphris (H121)
Baccholian Singers of London
English Chamber Orchestra, Ian Humphris (H186)
The King’s Singers (H131)
Frederick Harvey, baritone, Gerald Moore, piano (H90)
Richard Seal, organ
Choir of Chichester Cathedral, John Birch (H134)
London Boy Singers, Jonathan Steele (H129)
Bach Choir
Jacques Orchestra, Sir David Willcocks (H133)
Edwin Bates, organ
Rodney Christian Fellowship Festival Choir, Rodney Smith Bishton (Track 22)
CD5
Choristers of St Paul’s Cathedral Choir
London Symphony Chorus
London Philharmonic Orchestra, Sir Charles Groves (H140)
London Symphony Chorus, Richard Hickox
London Philharmonic Orchestra, Sir Charles Groves (H145)
Felicity Palmer, soprano
London Philharmonic Choir, John Alldis
London Philharmonic Orchestra, Sir Adrian Boult (H155)
CD6
Louis (a farmer) - Michael Rippon, baritone
Alison (his wife) - Norma Burrowes, soprano
Father Philippe - Michael Langdon, bass
Pierre (a wandering scholar) - Robert Tear, tenor
English Opera Group
English Chamber Orchestra, Steuart Bedford (H176)
Prince Hal - Philip Langridge, tenor
Falstaff - John Tomlinson, bass
Hostess (Mistress Quickly) - Elise Ross, soprano
Doll Tearsheet - Felicity Palmer, mezzo
Pistol - David Wilson-Johnson, baritone
Peto - Peter Hall, tenor
Bardolph - Richard Suart, baritone
Poins - Michael George, bass
Liverpool Philharmonic Choir, men’s voices
Royal Liverpool Philharmonic Orchestra, David Atherton (H156)
[teatrix.ru].t21584.torrent 
Торрент: Зарегистрирован [ 2016-03-20 12:38 ] · C16184BD88E6C3F8F7801A9735A66979D820D0B7

Скачать .torrent

Скачать

20 KB

Статус: проверено
Скачан: 1 раз
Размер: 1.76 GB
terms.php



Быстрый ответ

Имя:

      
Для отправки сообщений необходимо включить JavaScript
Показать сообщения:    

Текущее время: 09-Дек 22:29

Часовой пояс: UTC + 3


Вы можете начинать темы
Вы можете отвечать на сообщения
Вы не можете редактировать свои сообщения
Вы не можете удалять свои сообщения
Вы не можете голосовать в опросах
Вы не можете прикреплять файлы к сообщениям
Вы можете скачивать файлы