(Opera) Donizetti - Roberto Devereux (Gencer, Cappuccilli, Rota, Bondino - Coro & Orchestra del Teatro San Carlo di Napoli, Rossi) - 1998, APE (image+.cue) lossless


 

[Цитировать]

Gaetano Donizetti (1797-1848) - Roberto Devereux
Жанр: Opera
Страна-производитель диска: EU
Год издания диска: 1998
Издатель (лейбл): Opera d'Oro
Номер по каталогу: OPD 1159
Дата записи: 1964
Аудиокодек: APE
Тип рипа: image+.cue
Битрейт аудио: lossless
Продолжительность: 61'61+67'36
Источник: собственный рип
Наличие сканов в содержимом раздачи: да
Треклист:

CD1

Act 1
1. Sinfonia
2. Geme!... Pallor funereo
3. All'afflitto e dolce pianto
4. Duchessa... Alle fervide preci
5. L'amor suo mi fe' beata
6. Nunzio son del Parlamento!
7. Ah! Ritorna qual ti spero
8. Donna reale, a' piedi tuoi
9. Un lampo, un lamp orribile
10. Roberto!
11. Forse in quel cor sensibile
12. Duca, vieni
13. Tutto e silenzio
14. Da che tornasti, o misera

CD2

Act 2
1. L'ore trascorrono
2. Ebben?
3. Non venni mas si' mesto
4. Su lui non piombi
5. Ecco l'indegno!
6. Alma infida, ingrato core
7. Tutti udite. Il consiglio de' Pari
Act 3
8. Ne riede i lmio consorte!
9. Si... Nol sai che un nume vindice
10. Ed ancor la tremenda porta
11. Come uno spirto angelico...
12. Bagnato il sen di lagrime...
13. E Sara in questi orribili momenti
14. Vivi, ingrato, a lei d'accanto
15. Che m'apporti?
16. Quel sangue versato
Исполнители:
Gaetano Donizetti (1797-1848) - Roberto Devereux
Opera in tre Atti
Libretto: Salavadore Cammarano
Tratto dalla tragedia di Jacques-François Ancelot “Elisabeth d’Angleterre”
Elisabetta - Leyla Gencer
Duca di Nottingham - Piero Cappuccilli
Sara - Anna Maria Rota
Roberto Devereux - Ruggero Bondino
Lord Cecil - Gabriele De Julis
Sir Gualtiero Raleigh - Silvano Pagliuca
Un paggio - Bruno Grella

Coro del Teatro San Carlo di Napoli
Orchestra del Teatro San Carlo di Napoli
diretta da Mario Rossi

Лог создания рипа

CD1

Exact Audio Copy V1.0 beta 6 from 9. April 2015
EAC extraction logfile from 28. June 2015, 12:45
Donizetti / Roberto Devereux CD1
Used drive : TSSTcorpCDDVDW SE-208AB Adapter: 1 ID: 2
Read mode : Secure
Utilize accurate stream : Yes
Defeat audio cache : Yes
Make use of C2 pointers : No
Read offset correction : 6
Overread into Lead-In and Lead-Out : No
Fill up missing offset samples with silence : Yes
Delete leading and trailing silent blocks : No
Null samples used in CRC calculations : Yes
Used interface : Native Win32 interface for Win NT & 2000
Used output format : Monkey's Audio Lossless Encoder
Selected bitrate : High Lossless Compression
Quality : High
Add ID3 tag : Yes
Command line compressor : C:\Program Files (x86)\Exact Audio Copy\MAC\MAC.exe
TOC of the extracted CD
Track | Start | Length | Start sector | End sector
---------------------------------------------------------
1 | 0:00.00 | 7:40.28 | 0 | 34527
2 | 7:40.28 | 2:49.32 | 34528 | 47234
3 | 10:29.60 | 3:32.21 | 47235 | 63155
4 | 14:02.06 | 2:57.23 | 63156 | 76453
5 | 16:59.29 | 2:45.10 | 76454 | 88838
6 | 19:44.39 | 1:42.60 | 88839 | 96548
7 | 21:27.24 | 2:44.27 | 96549 | 108875
8 | 24:11.51 | 7:48.26 | 108876 | 144001
9 | 32:00.02 | 3:04.54 | 144002 | 157855
10 | 35:04.56 | 3:16.54 | 157856 | 172609
11 | 38:21.35 | 3:01.02 | 172610 | 186186
12 | 41:22.37 | 5:40.19 | 186187 | 211705
13 | 47:02.56 | 5:53.36 | 211706 | 238216
14 | 52:56.17 | 8:04.65 | 238217 | 274581
Range status and errors
Selected range
Filename D:\EAC\Donizetti - Roberto Devereux CD1.wav
Peak level 90.9 %
Extraction speed 4.7 X
Range quality 100.0 %
Test CRC AEB6A693
Copy CRC AEB6A693
Copy OK
No errors occurred
AccurateRip summary
Track 1 accurately ripped (confidence 1) [47D0CF61] (AR v1)
Track 2 accurately ripped (confidence 1) [7D4B413C] (AR v1)
Track 3 accurately ripped (confidence 1) [9AC2151A] (AR v1)
Track 4 accurately ripped (confidence 1) [18B1A7A6] (AR v1)
Track 5 accurately ripped (confidence 1) [C08CB0DB] (AR v1)
Track 6 accurately ripped (confidence 1) [65B896EB] (AR v1)
Track 7 accurately ripped (confidence 1) [0A055611] (AR v1)
Track 8 accurately ripped (confidence 1) [0421CA5A] (AR v1)
Track 9 accurately ripped (confidence 1) [4D113557] (AR v1)
Track 10 accurately ripped (confidence 1) [4CA5A66F] (AR v1)
Track 11 accurately ripped (confidence 1) [C00B9D26] (AR v1)
Track 12 accurately ripped (confidence 1) [45E8EF5E] (AR v1)
Track 13 accurately ripped (confidence 1) [8C4B9327] (AR v1)
Track 14 accurately ripped (confidence 1) [6EEC0330] (AR v1)
All tracks accurately ripped
End of status report
---- CUETools DB Plugin V2.1.6
[CTDB TOCID: c5K1uzyR6fSARUBOzmc1CRohL0s-] found
Submit result: c5K1uzyR6fSARUBOzmc1CRohL0s- has been confirmed
Track | CTDB Status
1 | (2/2) Accurately ripped
2 | (2/2) Accurately ripped
3 | (2/2) Accurately ripped
4 | (2/2) Accurately ripped
5 | (2/2) Accurately ripped
6 | (2/2) Accurately ripped
7 | (2/2) Accurately ripped
8 | (2/2) Accurately ripped
9 | (2/2) Accurately ripped
10 | (2/2) Accurately ripped
11 | (2/2) Accurately ripped
12 | (2/2) Accurately ripped
13 | (2/2) Accurately ripped
14 | (2/2) Accurately ripped
==== Log checksum D2C3C1BD3E66E97EEE91C05FC6D5D0C1FB09ECC8D500287F87C6A48BCCD298DC ====

CD2

Exact Audio Copy V1.0 beta 6 from 9. April 2015
EAC extraction logfile from 28. June 2015, 12:46
Donizetti / Roberto Devereux CD2
Used drive : TS8XDVDSTRANSCEND Adapter: 1 ID: 1
Read mode : Secure
Utilize accurate stream : Yes
Defeat audio cache : Yes
Make use of C2 pointers : No
Read offset correction : 6
Overread into Lead-In and Lead-Out : No
Fill up missing offset samples with silence : Yes
Delete leading and trailing silent blocks : No
Null samples used in CRC calculations : Yes
Used interface : Native Win32 interface for Win NT & 2000
Used output format : Monkey's Audio Lossless Encoder
Selected bitrate : High Lossless Compression
Quality : High
Add ID3 tag : Yes
Command line compressor : C:\Program Files (x86)\Exact Audio Copy\MAC\MAC.exe
TOC of the extracted CD
Track | Start | Length | Start sector | End sector
---------------------------------------------------------
1 | 0:00.00 | 3:26.51 | 0 | 15500
2 | 3:26.51 | 3:03.10 | 15501 | 29235
3 | 6:29.61 | 3:16.52 | 29236 | 43987
4 | 9:46.38 | 3:35.09 | 43988 | 60121
5 | 13:21.47 | 2:02.07 | 60122 | 69278
6 | 15:23.54 | 7:20.01 | 69279 | 102279
7 | 22:43.55 | 3:56.65 | 102280 | 120044
8 | 26:40.45 | 4:16.62 | 120045 | 139306
9 | 30:57.32 | 8:36.14 | 139307 | 178020
10 | 39:33.46 | 4:34.29 | 178021 | 198599
11 | 44:08.00 | 4:14.58 | 198600 | 217707
12 | 48:22.58 | 3:12.07 | 217708 | 232114
13 | 51:34.65 | 3:28.52 | 232115 | 247766
14 | 55:03.42 | 3:41.14 | 247767 | 264355
15 | 58:44.56 | 3:42.25 | 264356 | 281030
16 | 62:27.06 | 5:09.09 | 281031 | 304214
Range status and errors
Selected range
Filename D:\EAC\Donizetti - Roberto Devereux CD2.wav
Peak level 96.5 %
Extraction speed 5.0 X
Range quality 100.0 %
Test CRC 980F0960
Copy CRC 980F0960
Copy OK
No errors occurred
AccurateRip summary
Track 1 accurately ripped (confidence 1) [1601CE72] (AR v1)
Track 2 accurately ripped (confidence 1) [DDF587CF] (AR v1)
Track 3 accurately ripped (confidence 1) [08BA8B1D] (AR v1)
Track 4 accurately ripped (confidence 1) [61956B78] (AR v1)
Track 5 accurately ripped (confidence 1) [C134C8CC] (AR v1)
Track 6 accurately ripped (confidence 1) [0D33C980] (AR v1)
Track 7 accurately ripped (confidence 1) [32E8D46E] (AR v1)
Track 8 accurately ripped (confidence 1) [A0D0CA8A] (AR v1)
Track 9 accurately ripped (confidence 1) [34AC14C4] (AR v1)
Track 10 accurately ripped (confidence 1) [F320DB05] (AR v1)
Track 11 accurately ripped (confidence 1) [7CE648CE] (AR v1)
Track 12 accurately ripped (confidence 1) [E11ED6B0] (AR v1)
Track 13 accurately ripped (confidence 1) [D406600A] (AR v1)
Track 14 accurately ripped (confidence 1) [7F6CC64B] (AR v1)
Track 15 accurately ripped (confidence 1) [8B752560] (AR v1)
Track 16 accurately ripped (confidence 1) [CD555A7D] (AR v1)
All tracks accurately ripped
End of status report
---- CUETools DB Plugin V2.1.6
[CTDB TOCID: 6.z8TpErWjmJxJWcahkmwsoKoWY-] found
Submit result: unrecognized or virtual drive
Track | CTDB Status
1 | (2/2) Accurately ripped
2 | (2/2) Accurately ripped
3 | (2/2) Accurately ripped
4 | (2/2) Accurately ripped
5 | (2/2) Accurately ripped
6 | (2/2) Accurately ripped
7 | (2/2) Accurately ripped
8 | (2/2) Accurately ripped
9 | (2/2) Accurately ripped
10 | (2/2) Accurately ripped
11 | (2/2) Accurately ripped
12 | (2/2) Accurately ripped
13 | (2/2) Accurately ripped
14 | (2/2) Accurately ripped
15 | (2/2) Accurately ripped
16 | (2/2) Accurately ripped
==== Log checksum 0DD52C92D00875F48CAC29BD9E3E3773439E885A07219FA6C0DF372B5FD8BB19 ====

Содержание индексной карты (.CUE)

CD1

REM GENRE Opera
REM DATE 1964
REM DISCID B10E4D0E
REM COMMENT "ExactAudioCopy v1.0b6"
PERFORMER "Donizetti"
TITLE "Roberto Devereux CD1"
FILE "Donizetti - Roberto Devereux CD1.ape" WAVE
TRACK 01 AUDIO
TITLE "Act I: Sinfonia"
PERFORMER "Gencer, Cappuccilli, Rota - Orchestra e Coro del Teatro San Carlo di Napoli, ..."
FLAGS DCP
INDEX 01 00:00:00
TRACK 02 AUDIO
TITLE "Act I: Geme!...Pallor funereo..."
PERFORMER "Gencer, Cappuccilli, Rota - Orchestra e Coro del Teatro San Carlo di Napoli, ..."
FLAGS DCP
INDEX 01 07:40:28
TRACK 03 AUDIO
TITLE "Act I: All'afflitto e dolce pianto..."
PERFORMER "Gencer, Cappuccilli, Rota - Orchestra e Coro del Teatro San Carlo di Napoli, ..."
FLAGS DCP
INDEX 01 10:29:60
TRACK 04 AUDIO
TITLE "Act I: Duchessa...Alle Fervide preci..."
PERFORMER "Gencer, Cappuccilli, Rota - Orchestra e Coro del Teatro San Carlo di Napoli, ..."
FLAGS DCP
INDEX 01 14:02:06
TRACK 05 AUDIO
TITLE "Act I: L'amor suo mi fe beata..."
PERFORMER "Gencer, Cappuccilli, Rota - Orchestra e Coro del Teatro San Carlo di Napoli, ..."
FLAGS DCP
INDEX 01 16:59:29
TRACK 06 AUDIO
TITLE "Act I: Nunzio son del Parlamento!..."
PERFORMER "Gencer, Cappuccilli, Rota - Orchestra e Coro del Teatro San Carlo di Napoli, ..."
FLAGS DCP
INDEX 01 19:44:39
TRACK 07 AUDIO
TITLE "Act I: Ah! ritorna qual ti spero..."
PERFORMER "Gencer, Cappuccilli, Rota - Orchestra e Coro del Teatro San Carlo di Napoli, ..."
FLAGS DCP
INDEX 01 21:27:24
TRACK 08 AUDIO
TITLE "Act I: Donna reale, a' piedi tuoi..."
PERFORMER "Gencer, Cappuccilli, Rota - Orchestra e Coro del Teatro San Carlo di Napoli, ..."
FLAGS DCP
INDEX 01 24:11:51
TRACK 09 AUDIO
TITLE "Act I: Un Lampo, un lampo orrible"
PERFORMER "Gencer, Cappuccilli, Rota - Orchestra e Coro del Teatro San Carlo di Napoli, ..."
FLAGS DCP
INDEX 01 32:00:02
TRACK 10 AUDIO
TITLE "Act I: Reberto!..."
PERFORMER "Gencer, Cappuccilli, Rota - Orchestra e Coro del Teatro San Carlo di Napoli, ..."
FLAGS DCP
INDEX 01 35:04:56
TRACK 11 AUDIO
TITLE "Act I: Forse in quel cor sensible..."
PERFORMER "Gencer, Cappuccilli, Rota - Orchestra e Coro del Teatro San Carlo di Napoli, ..."
FLAGS DCP
INDEX 01 38:21:35
TRACK 12 AUDIO
TITLE "Act I: Duca, vieni..."
PERFORMER "Gencer, Cappuccilli, Rota - Orchestra e Coro del Teatro San Carlo di Napoli, ..."
FLAGS DCP
INDEX 01 41:22:37
TRACK 13 AUDIO
TITLE "Act I: Tutto e silenzio..."
PERFORMER "Gencer, Cappuccilli, Rota - Orchestra e Coro del Teatro San Carlo di Napoli, ..."
FLAGS DCP
INDEX 01 47:02:56
TRACK 14 AUDIO
TITLE "Act I: Da che tornasti, o misera..."
PERFORMER "Gencer, Cappuccilli, Rota - Orchestra e Coro del Teatro San Carlo di Napoli, ..."
FLAGS DCP
INDEX 01 52:56:17

CD2

REM GENRE Opera
REM DATE 1964
REM DISCID E90FD810
REM COMMENT "ExactAudioCopy v1.0b6"
PERFORMER "Donizetti"
TITLE "Roberto Devereux CD2"
FILE "Donizetti - Roberto Devereux CD2.ape" WAVE
TRACK 01 AUDIO
TITLE "Act II: L'ore trascorrono..."
PERFORMER "Gencer, Cappuccilli, Rota - Orchestra e Coro del Teatro San Carlo di Napoli, ..."
FLAGS DCP
INDEX 01 00:00:00
TRACK 02 AUDIO
TITLE "Act II: Ebben?..."
PERFORMER "Gencer, Cappuccilli, Rota - Orchestra e Coro del Teatro San Carlo di Napoli, ..."
FLAGS DCP
INDEX 01 03:26:51
TRACK 03 AUDIO
TITLE "Act II: Non venni mai si mesto..."
PERFORMER "Gencer, Cappuccilli, Rota - Orchestra e Coro del Teatro San Carlo di Napoli, ..."
FLAGS DCP
INDEX 01 06:29:61
TRACK 04 AUDIO
TITLE "Act II: Su lui non piombi..."
PERFORMER "Gencer, Cappuccilli, Rota - Orchestra e Coro del Teatro San Carlo di Napoli, ..."
FLAGS DCP
INDEX 01 09:46:38
TRACK 05 AUDIO
TITLE "Act II: Ecco l'indegno!..."
PERFORMER "Gencer, Cappuccilli, Rota - Orchestra e Coro del Teatro San Carlo di Napoli, ..."
FLAGS DCP
INDEX 01 13:21:47
TRACK 06 AUDIO
TITLE "Act II: Alma infida, ingrato core..."
PERFORMER "Gencer, Cappuccilli, Rota - Orchestra e Coro del Teatro San Carlo di Napoli, ..."
FLAGS DCP
INDEX 01 15:23:54
TRACK 07 AUDIO
TITLE "Act II: Tutti udite. Il consiglio de Pari"
PERFORMER "Gencer, Cappuccilli, Rota - Orchestra e Coro del Teatro San Carlo di Napoli, ..."
FLAGS DCP
INDEX 01 22:43:55
TRACK 08 AUDIO
TITLE "Act III: Ne reide il mio consorte!..."
PERFORMER "Gencer, Cappuccilli, Rota - Orchestra e Coro del Teatro San Carlo di Napoli, ..."
FLAGS DCP
INDEX 01 26:40:45
TRACK 09 AUDIO
TITLE "Act III: Si... Nol sai che un nume vindice..."
PERFORMER "Gencer, Cappuccilli, Rota - Orchestra e Coro del Teatro San Carlo di Napoli, ..."
FLAGS DCP
INDEX 01 30:57:32
TRACK 10 AUDIO
TITLE "Act III: Ed ancor la tremenda porta..."
PERFORMER "Gencer, Cappuccilli, Rota - Orchestra e Coro del Teatro San Carlo di Napoli, ..."
FLAGS DCP
INDEX 01 39:33:46
TRACK 11 AUDIO
TITLE "Act III: come uno spirto angelico..."
PERFORMER "Gencer, Cappuccilli, Rota - Orchestra e Coro del Teatro San Carlo di Napoli, ..."
FLAGS DCP
INDEX 01 44:08:00
TRACK 12 AUDIO
TITLE "Act III: Bagnato il sen di lagrime..."
PERFORMER "Gencer, Cappuccilli, Rota - Orchestra e Coro del Teatro San Carlo di Napoli, ..."
FLAGS DCP
INDEX 01 48:22:58
TRACK 13 AUDIO
TITLE "Act III: E Sara in questi orribili momenti"
PERFORMER "Gencer, Cappuccilli, Rota - Orchestra e Coro del Teatro San Carlo di Napoli, ..."
FLAGS DCP
INDEX 01 51:34:65
TRACK 14 AUDIO
TITLE "Act III: Vivi, ingrato, a lei d' accanto..."
PERFORMER "Gencer, Cappuccilli, Rota - Orchestra e Coro del Teatro San Carlo di Napoli, ..."
FLAGS DCP
INDEX 01 55:03:42
TRACK 15 AUDIO
TITLE "Act III: Che m' apporti?..."
PERFORMER "Gencer, Cappuccilli, Rota - Orchestra e Coro del Teatro San Carlo di Napoli, ..."
FLAGS DCP
INDEX 01 58:44:56
TRACK 16 AUDIO
TITLE "Act III: Quel sangue versato..."
PERFORMER "Gencer, Cappuccilli, Rota - Orchestra e Coro del Teatro San Carlo di Napoli, ..."
FLAGS DCP
INDEX 01 62:27:06
Доп. информация:
Although this performance has appeared in a number of previous editions, the Opera D'Oro version has sound to match the best.
Cappucilli is in his youthful prime and Anna Maria Rota, though without an intrinsically 'beautiful' sound, is stylistically correct and dramatically committed.
The fly in the ointment is Bondino, whose evident commitment cannot overcome his bleating tone and vague sense of pitch. But of course it is for Gencer that enthusiasts will want this recording.
The year of the performance, 1964, was Gencer's 'annus mirabilis' with not only this supreme interpretation (in the first revival in modern times) of Elisabetta, but magisterial interpretations of Beatrice di Tenda and Norma, among others.
Very different from the equally valid interpretations of Sills and Caballe, Gencer's unique sense of line and of the use of words to color the music make her unique.



Показать сообщения:    

Текущее время: 10-Дек 06:08

Часовой пояс: UTC + 3


Вы не можете начинать темы
Вы не можете отвечать на сообщения
Вы не можете редактировать свои сообщения
Вы не можете удалять свои сообщения
Вы не можете голосовать в опросах
Вы не можете прикреплять файлы к сообщениям
Вы не можете скачивать файлы