(Classical) VA - Barcarole - Zauber der Klassik - 1993, FLAC (tracks+.cue) lossless


 

[Цитировать]

Barcarole - Zauber der Klassik
Жанр: Classical
Страна-производитель диска: Germany
Год издания диска: 1993
Издатель (лейбл): Delta Music GmbH
Номер по каталогу: 11540
Аудиокодек: FLAC
Тип рипа: tracks+.cue
Битрейт аудио: lossless
Продолжительность: 1:01:19.
Источник: собственный рип
Наличие сканов в содержимом раздачи: да
Треклист:
01. Marc Antoine Charpentier - Te Deum D-Dur (Eurovisionsmelodie) [0:01:59.15]
02. Giuseppe Verdi / Nabucco - Gefangenenchor [0:07:16.00]
03. Wolfgang Amadeus Mozart / Die Zauberflöte - Dies Bildnis ist bezaubernd schön [0:04:36.35]
04. Giuseppe Verdi / Die Macht des Schicksals - Ouverture [0:07:07.10]
05. Felix Mendelssohn-Bartholdy / Ein Sommernachtstraum - Intermezzo [0:03:38.27]
06. Jaques Offenbach / Hoffmann's Erzählungen - Barcarole [0:03:33.00]
07. Albert Lortzing / Zar und Zimmermann - Holzschuhtanz [0:03:37.43]
08. Wolfgang Amadeus Mozart / Die Zauberflöte - Der Vogelfänger bin ich ja [0:02:57.72]
09. Wolfgang Amadeus Mozart / Die Zauberflöte - O Isis und Osiris [0:02:33.13]
10. Wolfgang Amadeus Mozart / Die Hochzeit des Figaro - Ouverture [0:04:17.60]
11. Jules Massenet / Thais - Méditation [0:05:20.42]
12. Johann Strauss Sohn / Die Fledermaus - Ouverture [0:08:55.70]
13. Richard Wagner / Tannhäuser - Pilgerchor [0:05:25.63]
Исполнители:
Andre Bernard - trompete, 1;
Jean-Louis Gil - orgel, 1;
Chor und Orchester des Prager Nationaltheaters, Vaclav Smetacek, 2;
Josef Protschka - tenor, 3;
Munchner Rundfunkorchester, Kurt Eichhorn, 3;
Tschechische Philharmonie, Zdenek Chalabala, 4;
Budapester Philharmonic Orchester, Andras Korodi, 5;
London Philharmonic Orchestra, Laurence Siegel, 6, 10;
Chor und Orchester der Philharmonie Bratislawa, Kurt Woss, 7, 8, 13;
Chor und Orchester der Deutschen Staatsoper Berlin, Otmar Suitner, 9;
Royal Philharmonic Orchestra, N. Shetler, 11;
RTL-Sinfonieorchester, Kurt Redel, 12;
Hermann Prey - bariton, 13.

Лог создания рипа

Exact Audio Copy V1.0 beta 3 from 29. August 2011
Отчёт EAC об извлечении, выполненном 13. июня 2015, 22:28
VA / Barcarole - Zauber der Klassik
Дисковод: ASUS DRW-1814BLT Adapter: 4 ID: 0
Режим чтения : Достоверность
Использование точного потока : Да
Отключение кэша аудио : Да
Использование указателей C2 : Нет
Коррекция смещения при чтении : 6
Способность читать области Lead-in и Lead-out : Нет
Заполнение пропущенных сэмплов тишиной : Да
Удаление блоков с тишиной в начале и конце : Нет
При вычислениях CRC использовались нулевые сэмплы : Да
Интерфейс : Встроенный Win32-интерфейс для Win NT/2000
Обработка зазоров : Добавлено к предыдущему треку
Выходной формат : Пользовательский кодировщик
Выбранный битрейт : 128 kBit/s
Качество : Высокий
Добавление ID3-тега : Нет
Утилита сжатия : C:\Program Files\Exact Audio Copy\Flac\flac.exe
Дополнительные параметры : -V -8 -T "Genre=%genre%" -T "Artist=%artist%" -T "Title=%title%" -T "Album=%albumtitle%" -T "Date=%year%" -T "Tracknumber=%tracknr%" -T "Comment=EAC1.0b2 FLAC -8" %source%
TOC извлечённого CD
Трек | Старт | Длительность | Начальный сектор | Конечный сектор
---------------------------------------------------------------------
1 | 0:00.38 | 1:59.15 | 38 | 8977
2 | 1:59.53 | 7:16.00 | 8978 | 41677
3 | 9:15.53 | 4:36.35 | 41678 | 62412
4 | 13:52.13 | 7:07.10 | 62413 | 94447
5 | 20:59.23 | 3:38.27 | 94448 | 110824
6 | 24:37.50 | 3:33.00 | 110825 | 126799
7 | 28:10.50 | 3:37.43 | 126800 | 143117
8 | 31:48.18 | 2:57.72 | 143118 | 156464
9 | 34:46.15 | 2:33.13 | 156465 | 167952
10 | 37:19.28 | 4:17.60 | 167953 | 187287
11 | 41:37.13 | 5:20.42 | 187288 | 211329
12 | 46:57.55 | 8:55.70 | 211330 | 251524
13 | 55:53.50 | 5:25.63 | 251525 | 275962
Трек 1
Имя файла R:\Раздача 48\VA - Barcarole - Zauber der Klassik - 1993\01 Te Deum D-Dur (Eurovisionsmelodie).wav
Длина предзазора 0:00:02.38
Пиковый уровень 55.8 %
Скорость извлечения 2.7 X
Качество трека 99.9 %
CRC теста A7D1FA04
CRC копии A7D1FA04
Точное извлечение (достоверность 4) [F4C359D8] (AR v2)
Копирование... OK
Трек 2
Имя файла R:\Раздача 48\VA - Barcarole - Zauber der Klassik - 1993\02 Nabucco - Gefangenenchor.wav
Пиковый уровень 65.7 %
Скорость извлечения 5.6 X
Качество трека 100.0 %
CRC теста DF07177B
CRC копии DF07177B
Точное извлечение (достоверность 4) [A03F470A] (AR v2)
Копирование... OK
Трек 3
Имя файла R:\Раздача 48\VA - Barcarole - Zauber der Klassik - 1993\03 Die Zauberflöte - Dies Bildnis ist bezaubernd schön.wav
Пиковый уровень 53.1 %
Скорость извлечения 5.9 X
Качество трека 100.0 %
CRC теста 50B4D51A
CRC копии 50B4D51A
Точное извлечение (достоверность 4) [A5DE5DD2] (AR v2)
Копирование... OK
Трек 4
Имя файла R:\Раздача 48\VA - Barcarole - Zauber der Klassik - 1993\04 Die Macht des Schicksals - Ouverture.wav
Пиковый уровень 59.6 %
Скорость извлечения 6.7 X
Качество трека 100.0 %
CRC теста F943A36D
CRC копии F943A36D
Точное извлечение (достоверность 4) [9C2190B2] (AR v2)
Копирование... OK
Трек 5
Имя файла R:\Раздача 48\VA - Barcarole - Zauber der Klassik - 1993\05 Ein Sommernachtstraum - Intermezzo.wav
Пиковый уровень 44.2 %
Скорость извлечения 6.7 X
Качество трека 100.0 %
CRC теста 3F331225
CRC копии 3F331225
Точное извлечение (достоверность 4) [518E32B3] (AR v2)
Копирование... OK
Трек 6
Имя файла R:\Раздача 48\VA - Barcarole - Zauber der Klassik - 1993\06 Hoffmann's Erzählungen - Barcarole.wav
Пиковый уровень 53.3 %
Скорость извлечения 6.9 X
Качество трека 100.0 %
CRC теста 6BB7565B
CRC копии 6BB7565B
Точное извлечение (достоверность 4) [F36772DA] (AR v2)
Копирование... OK
Трек 7
Имя файла R:\Раздача 48\VA - Barcarole - Zauber der Klassik - 1993\07 Zar und Zimmermann - Holzschuhtanz.wav
Пиковый уровень 67.5 %
Скорость извлечения 7.1 X
Качество трека 100.0 %
CRC теста 304F7DFD
CRC копии 304F7DFD
Точное извлечение (достоверность 4) [CD930760] (AR v2)
Копирование... OK
Трек 8
Имя файла R:\Раздача 48\VA - Barcarole - Zauber der Klassik - 1993\08 Die Zauberflöte - Der Vogelfänger bin ich ja.wav
Пиковый уровень 50.8 %
Скорость извлечения 4.9 X
Качество трека 99.9 %
CRC теста 85638131
CRC копии 85638131
Точное извлечение (достоверность 4) [F0922283] (AR v2)
Копирование... OK
Трек 9
Имя файла R:\Раздача 48\VA - Barcarole - Zauber der Klassik - 1993\09 Die Zauberflöte - O Isis und Osiris.wav
Пиковый уровень 55.3 %
Скорость извлечения 7.1 X
Качество трека 100.0 %
CRC теста 7EF615CB
CRC копии 7EF615CB
Точное извлечение (достоверность 4) [216EAFA1] (AR v2)
Копирование... OK
Трек 10
Имя файла R:\Раздача 48\VA - Barcarole - Zauber der Klassik - 1993\10 Die Hochzeit des Figaro - Ouverture.wav
Пиковый уровень 69.7 %
Скорость извлечения 8.0 X
Качество трека 100.0 %
CRC теста DCA8EB03
CRC копии DCA8EB03
Точное извлечение (достоверность 4) [F5D7FF90] (AR v2)
Копирование... OK
Трек 11
Имя файла R:\Раздача 48\VA - Barcarole - Zauber der Klassik - 1993\11 Thais - Méditation.wav
Пиковый уровень 55.8 %
Скорость извлечения 8.5 X
Качество трека 100.0 %
CRC теста 11EC376F
CRC копии 11EC376F
Точность не определена (достоверность 4) [23A2C3DD], AccurateRip вернул [23A2C3D5] (AR v2)
Копирование... OK
Трек 12
Имя файла R:\Раздача 48\VA - Barcarole - Zauber der Klassik - 1993\12 Die Fledermaus - Ouverture.wav
Пиковый уровень 59.7 %
Скорость извлечения 9.4 X
Качество трека 100.0 %
CRC теста CA00A1A3
CRC копии CA00A1A3
Точность не определена (достоверность 4) [735EB381], AccurateRip вернул [54EB3B74] (AR v2)
Копирование... OK
Трек 13
Имя файла R:\Раздача 48\VA - Barcarole - Zauber der Klassik - 1993\13 Tannhäuser - Pilgerchor.wav
Пиковый уровень 52.3 %
Скорость извлечения 9.3 X
Качество трека 100.0 %
CRC теста 2C82C581
CRC копии 2C82C581
Точность не определена (достоверность 4) [80B1B292], AccurateRip вернул [CF10BDD1] (AR v2)
Копирование... OK
10 трек(и) скопированы точно
3 трек(и) не удалось проверить на точность
Некоторые треки не прошли проверку на точность
Ошибок не произошло
Конец отчёта
==== Контрольная сумма отчёта 3D8F4D103D0B28D5DE49D7FED111BC835EE4F5F1932D6BD622B21542D6F40EEA ====

Содержание индексной карты (.CUE)

REM GENRE Classical
REM DATE 1993
REM DISCID B90E5F0D
REM COMMENT "ExactAudioCopy v1.0b3"
PERFORMER "VA"
TITLE "Barcarole - Zauber der Klassik"
FILE "01 Te Deum D-Dur (Eurovisionsmelodie).wav" WAVE
TRACK 01 AUDIO
TITLE "Te Deum D-Dur (Eurovisionsmelodie)"
PERFORMER "Marc Antoine Charpentier"
ISRC 000000000000
PREGAP 00:00:38
INDEX 01 00:00:00
FILE "02 Nabucco - Gefangenenchor.wav" WAVE
TRACK 02 AUDIO
TITLE "Nabucco - Gefangenenchor"
PERFORMER "Giuseppe Verdi"
ISRC 000000000000
INDEX 01 00:00:00
FILE "03 Die Zauberflote - Dies Bildnis ist bezaubernd schon.wav" WAVE
TRACK 03 AUDIO
TITLE "Die Zauberflote - Dies Bildnis ist bezaubernd schon"
PERFORMER "Wolfgang Amadeus Mozart"
ISRC 000000000000
INDEX 01 00:00:00
FILE "04 Die Macht des Schicksals - Ouverture.wav" WAVE
TRACK 04 AUDIO
TITLE "Die Macht des Schicksals - Ouverture"
PERFORMER "Giuseppe Verdi"
ISRC 000000000000
INDEX 01 00:00:00
FILE "05 Ein Sommernachtstraum - Intermezzo.wav" WAVE
TRACK 05 AUDIO
TITLE "Ein Sommernachtstraum - Intermezzo"
PERFORMER "Felix Mendelssohn-Bartholdy"
ISRC 000000000000
INDEX 01 00:00:00
FILE "06 Hoffmann's Erzahlungen - Barcarole.wav" WAVE
TRACK 06 AUDIO
TITLE "Hoffmann's Erzahlungen - Barcarole"
PERFORMER "Jaques Offenbach"
ISRC 000000000000
INDEX 01 00:00:00
FILE "07 Zar und Zimmermann - Holzschuhtanz.wav" WAVE
TRACK 07 AUDIO
TITLE "Zar und Zimmermann - Holzschuhtanz"
PERFORMER "Albert Lortzing"
ISRC 000000000000
INDEX 01 00:00:00
FILE "08 Die Zauberflote - Der Vogelfanger bin ich ja.wav" WAVE
TRACK 08 AUDIO
TITLE "Die Zauberflote - Der Vogelfanger bin ich ja"
PERFORMER "Wolfgang Amadeus Mozart"
ISRC 000000000000
INDEX 01 00:00:00
FILE "09 Die Zauberflote - O Isis und Osiris.wav" WAVE
TRACK 09 AUDIO
TITLE "Die Zauberflote - O Isis und Osiris"
PERFORMER "Wolfgang Amadeus Mozart"
ISRC 000000000000
INDEX 01 00:00:00
FILE "10 Die Hochzeit des Figaro - Ouverture.wav" WAVE
TRACK 10 AUDIO
TITLE "Die Hochzeit des Figaro - Ouverture"
PERFORMER "Wolfgang Amadeus Mozart"
ISRC 000000000000
INDEX 01 00:00:00
FILE "11 Thais - Meditation.wav" WAVE
TRACK 11 AUDIO
TITLE "Thais - Meditation"
PERFORMER "Jules Massenet"
ISRC 000000000000
INDEX 01 00:00:00
FILE "12 Die Fledermaus - Ouverture.wav" WAVE
TRACK 12 AUDIO
TITLE "Die Fledermaus - Ouverture"
PERFORMER "Johann Strauss Sohn"
ISRC 000000000000
INDEX 01 00:00:00
FILE "13 Tannhauser - Pilgerchor.wav" WAVE
TRACK 13 AUDIO
TITLE "Tannhauser - Pilgerchor"
PERFORMER "Richard Wagner"
ISRC 000000000000
INDEX 01 00:00:00



Показать сообщения:    

Текущее время: 04-Дек 02:56

Часовой пояс: UTC + 3


Вы не можете начинать темы
Вы не можете отвечать на сообщения
Вы не можете редактировать свои сообщения
Вы не можете удалять свои сообщения
Вы не можете голосовать в опросах
Вы не можете прикреплять файлы к сообщениям
Вы не можете скачивать файлы