Кумиры экрана. Екатерина Савинова (Руслан Заварзин) [2000, Личности и кумиры, DVB]


Статистика раздачи [Обновить пиров]
Размер:  468 MB   |    Зарегистрирован:  8 месяцев 16 дней   |    Скачан:  0 раз

Полного источника не было: Никогда

 
   
 
 
 

[Цитировать]

Кумиры экрана. Екатерина Савинова
Дата/Год выпуска: 2000
Страна: Россия
Жанр: Личности и кумиры
Продолжительность: 00:26:08
Перевод: Не требуется
Студия / издатель: ВТВ-сервис
Режиссер: Руслан Заварзин
Телеканал: Ретро
Описание:
Родилась 26 декабря 1926 года в селе Ельцовка Алтайского края.По окончании школы приехала в Москву, где после неудачной попытки поступления во ВГИК полгода проучилась в землеустроительном институте. Зимой Савиновой удалось поступить на курсы Василия Ванина, однако вскоре она была отчислена, будучи, по словам Ванина, замечательной актрисой для театра, но не для кино.
Впоследствии Савинова, преодолев большой конкурс, всё же поступила во ВГИК — в мастерскую Бориса Бибикова и Ольги Пыжовой. Институт она окончила в 1950 году. В кино снималась с 1949 года (первая роль — Любочка в фильме Ивана Пырьева «Кубанские казаки»). После участия в этом фильме все двери в кино перед Екатериной были закрыты волей «всемогущего» главы «Мосфильма» Ивана Пырьева, на притязания которого она не ответила. Пырьев, фактически, оказал неизгладимое влияние на судьбу Екатерины, исковеркав её жизнь.Её несколько раз приглашали на пробы серьёзных ролей в кино, утверждали, но через некоторое время перезванивали и, извиняясь, отказывали. По воспоминаниям актёров, Екатерина была в так называемом «чёрном списке» Мосфильма.
С 1952 года играла в Театре-студии киноактёра. При этом крупных театральных ролей долгое время Савинова не получала. Так, например, она сыграла роль первой гостьи в спектакле «Бедность не порок» по одноимённой пьесе Островского, и своей игрой в этой проходной роли заслужила уважение постановщика спектакля А. Д. Дикого; Екатерина должна была играть одну из главных ролей (Кабаниха) в пьесе «Гроза», которая готовилась к постановке Алексеем Диким, однако спустя три месяца после начала репетиций спектакль был закрыт.Самой крупной ролью Савиновой в кино стала роль Фроси Бурлаковой в картине «Приходите завтра…» (1963 год). Эта роль, принёсшая актрисе славу (роль Фроси Бурлаковой была отмечена как лучшая женская роль года), была во многом биографична. Сценарий фильма написал специально для актрисы её муж, кинорежиссёр Евгений Ташков.По воспоминаниям современников, картина «Приходите завтра» снималась в обход запретов Пырьева (для этого съемочной группе пришлось уехать из Москвы на Одесскую киностудию). Съёмки пытались запретить (Екатерину критики обвинили в бездарности) и Е. И. Ташкову пришлось долго убеждать руководителя киностудии.После участия в фильме «Приходите завтра…» Екатерина больше не получала крупных ролей. Единственной заметной ролью в кино после этого фильма стала роль служанки в картине «Женитьба Бальзаминова».
Доп. информация: "Кумиры экрана" - авторская передача Народной артистки СССР Клары Лучко, выступающей в роли ведущей.
Сэмпл: https://www.sendspace.com/file/l1bzws
качество: DVB
формат: MPG
Видео: MPEG2, 720:576, (4:3) 2261 Кбит/сек, 25,000 кадров/сек, (0.218 bit/pixel)
Аудио: MP2, 192 Кбит/сек, 48,0 КГц, 2 канала

MediaInfo

Общее
Полное имя : Екатерина Савинова.mpg
Формат : MPEG-PS
Размер файла : 468 Мбайт
Продолжительность : 26 м.
Режим общего битрейта : Переменный
Общий поток : 2503 Кбит/сек
Видео
Идентификатор : 224 (0xE0)
Формат : MPEG Video
Версия формата : Version 2
Профиль формата : Main@Main
Параметр BVOP формата : Да
Параметр матрицы формата : Выборочная
Параметр GOP формата : M=3, N=12
Структура изображения : Frame
Продолжительность : 26 м.
Вид битрейта : Переменный
Битрейт : 2261 Кбит/сек
Максимальный битрейт : 10000 Кбит/сек
Ширина : 720 пикселей
Высота : 576 пикселей
Соотношение сторон : 4:3
Частота кадров : 25,000 кадров/сек
Стандарт вещания : PAL
Цветовое пространство : YUV
Субдискретизация насыщенности : 4:2:0
Битовая глубина : 8 бит
Тип развёртки : Чересстрочная
Порядок развёртки : Верхнее поле первое
Метод сжатия : С потерями
Бит/(Пиксели*Кадры) : 0.218
Временной код первого кадра : 00:00:00:00
Оригинал временного кода : Group of pictures header
GOP, открыто/закрыто : Открыто
GOP, открыто/закрыто на первом кадре : Закрыто
Размер потока : 423 Мбайт (90%)
Аудио
Идентификатор : 192 (0xC0)
Формат : MPEG Audio
Версия формата : Version 1
Профиль формата : Layer 2
Продолжительность : 26 м.
Вид битрейта : Постоянный
Битрейт : 192 Кбит/сек
Каналы : 2 канала
Частота : 48,0 КГц
Метод сжатия : С потерями
Задержка видео : 7 мс.
Размер потока : 35,9 Мбайт (8%)

Скриншоты

Запись потока *.ts произведена тюнером цифрового телевидения. В связи с тем, что не все плееры воспроизводят поток *.ts (MPEG-TS) , в данном видеофайле мной был сделан ремукс потока *.ts (MPEG-TS) в *.mpg (MPEG-PS) программой VideoReDo.
[teatrix.ru].t21590.torrent 
Торрент: Зарегистрирован [ 2016-03-20 12:38 ] · B8617C2034FDFD1CA7481D20954B2F8754D486BA

Скачать .torrent

Скачать

19 KB

Статус: проверено
Скачан: 0 раз
Размер: 468 MB
terms.php



Быстрый ответ

Имя:

      
Для отправки сообщений необходимо включить JavaScript
Показать сообщения:    

Текущее время: 05-Дек 17:32

Часовой пояс: UTC + 3


Вы можете начинать темы
Вы можете отвечать на сообщения
Вы не можете редактировать свои сообщения
Вы не можете удалять свои сообщения
Вы не можете голосовать в опросах
Вы не можете прикреплять файлы к сообщениям
Вы можете скачивать файлы