Кумиры экрана. Николай Еременко (Руслан Заварзин) [2000, Личности и кумиры, DVB]


Статистика раздачи [Обновить пиров]
Размер:  492 MB   |    Зарегистрирован:  8 месяцев 19 дней   |    Скачан:  1 раз

Полного источника не было: 6 месяцев 11 дней

 
   
 
 
 

[Цитировать]

Кумиры экрана. Николай Еременко
Дата/Год выпуска: 2000
Страна: Россия
Жанр: Личности и кумиры
Продолжительность: 00:26:37
Перевод: Не требуется
Студия / издатель: ВТВ-сервис
Режиссер: Руслан Заварзин
Телеканал: Ретро
Описание:
Родился 14 февраля 1949 года в Витебске, Белорусская ССР.
Заслуженный артист РСФСР (25.03.1983).
Народный артист РФ (1.03.1994).
Отец - народный артист СССР Николай Николаевич Ерёменко (1926-2000).
Мать - народная артистка Белорусской ССР Галина Александровна Орлова (род. 1928).
В 1971 году окончил Всесоюзный государственный институт кинематографии (мастерская С.А. Герасимова и Т.Ф. Макаровой) и стал актёром Театра-студии киноактёра.
Сергей Герасимов любил Колю Ерёменко и снял его в своих шести фильмах, больше только снялась жена Герасимова — Тамара Макарова.
С 1976 года — актёр киностудии имени М. Горького.
C 2001 года — советник по культуре посольства Белоруссии в Москве.
В середине 1990-х годов Ерёменко решается на режиссёрский дебют — «Сын за отца», где он снимается со своим отцом. После совместного фильма Ерёменко-старший возвращается в театр и кино, где плодотворно работает ещё пять лет.
Доп. информация: "Кумиры экрана" - авторская передача Народной артистки СССР Клары Лучко, выступающей в роли ведущей.
Сэмпл: https://www.sendspace.com/file/vg5a66
качество: DVB
формат: MPG
Видео: MPEG2, 720:576, (4:3) 2339 Кбит/сек, 25,000 кадров/сек, (0.226 bit/pixel)
Аудио: MP2, 192 Кбит/сек, 48,0 КГц, 2 канала

MediaInfo

Общее
Полное имя : Николай Еременко.mpg
Формат : MPEG-PS
Размер файла : 492 Мбайт
Продолжительность : 26 м.
Режим общего битрейта : Переменный
Общий поток : 2582 Кбит/сек
Видео
Идентификатор : 224 (0xE0)
Формат : MPEG Video
Версия формата : Version 2
Профиль формата : Main@Main
Параметр BVOP формата : Да
Параметр матрицы формата : Выборочная
Параметр GOP формата : M=3, N=12
Структура изображения : Frame
Продолжительность : 26 м.
Вид битрейта : Переменный
Битрейт : 2339 Кбит/сек
Максимальный битрейт : 10000 Кбит/сек
Ширина : 720 пикселей
Высота : 576 пикселей
Соотношение сторон : 4:3
Частота кадров : 25,000 кадров/сек
Стандарт вещания : PAL
Цветовое пространство : YUV
Субдискретизация насыщенности : 4:2:0
Битовая глубина : 8 бит
Тип развёртки : Чересстрочная
Порядок развёртки : Верхнее поле первое
Метод сжатия : С потерями
Бит/(Пиксели*Кадры) : 0.226
Временной код первого кадра : 00:00:00:00
Оригинал временного кода : Group of pictures header
GOP, открыто/закрыто : Открыто
GOP, открыто/закрыто на первом кадре : Закрыто
Размер потока : 445 Мбайт (91%)
Аудио
Идентификатор : 192 (0xC0)
Формат : MPEG Audio
Версия формата : Version 1
Профиль формата : Layer 2
Продолжительность : 26 м.
Вид битрейта : Постоянный
Битрейт : 192 Кбит/сек
Каналы : 2 канала
Частота : 48,0 КГц
Метод сжатия : С потерями
Задержка видео : 3 мс.
Размер потока : 36,6 Мбайт (7%)

Скриншоты

Запись потока *.ts произведена тюнером цифрового телевидения. В связи с тем, что не все плееры воспроизводят поток *.ts (MPEG-TS) , в данном видеофайле мной был сделан ремукс потока *.ts (MPEG-TS) в *.mpg (MPEG-PS) программой VideoReDo.
[teatrix.ru].t21591.torrent 
Торрент: Зарегистрирован [ 2016-03-20 12:41 ] · B33240010FE42883AD6B4DB1E52F84A8BBB66F19

Скачать .torrent

Скачать

20 KB

Статус: проверено
Скачан: 1 раз
Размер: 492 MB
terms.php



Быстрый ответ

Имя:

      
Для отправки сообщений необходимо включить JavaScript
Показать сообщения:    

Текущее время: 08-Дек 14:52

Часовой пояс: UTC + 3


Вы можете начинать темы
Вы можете отвечать на сообщения
Вы не можете редактировать свои сообщения
Вы не можете удалять свои сообщения
Вы не можете голосовать в опросах
Вы не можете прикреплять файлы к сообщениям
Вы можете скачивать файлы