(Vocal / Вокал) Фёдор Шаляпин/Feodor Chaliapin - Bass of the Century - 1993 (Rossini,Даргомыжский,Глинка,Gounod,Римский-Корсаков,Кёнеман,Мусоргский,Massenet,Архангельский,Гречанинов), FLAC (tracks+.cue) lossless


 

[Цитировать]

Фёдор Шаляпин/Feodor Chaliapin - Bass of the Century
Жанр: Vocal / Вокал
Страна-производитель диска: Great Britain
Год издания диска: 1993
Издатель (лейбл): Conifer
Номер по каталогу: CDHD 226
UPC: 756055222620
Дата записи: 1926-1932
Аудиокодек: FLAC
Тип рипа: tracks+.cue
Битрейт аудио: lossless
Продолжительность: 75:41
Источник: собственный рип
Треклист:
1. La Calunnia E Un Venticello "Il Barbiere Di Siviglia" Act I
2. You Young Girls Are All Alike (The Miller's Aria) "Russalka" Act I
3. Already The Hour Of My Triumph (Farlaf's Rondo) "Rusland And Ludmilla" Act II
4. Un Rat... Le Veau D'Or "Faust" Act II
5. Vous Qui Faites L'Endormie (Mephistopheles' Serenade) "Faust" Act IV
6. I Have Attained The Highest Power (Boris's Monologue) "Boris Godunov" Act II
7. Ah! I Am Suffocating (Clock Scene) "Boris Godunov" Act II
8. Prayer Of Boris... "Boris Godunov" Act IV
9. ...Death Of Boris "Boris Godunov" Act IV
10. The Midnight Review
11. When The King Went Forth To War
12. The Song Of The Volga Boatmen (Ei Ukhnem!)
13. The Song Of The Flea
14. Down The Petersky
15. Élégie
16. Black Eyes (Ochi Chorniye)
17. Sten'ka Razin
18. The Legend Of The Twelve Brigands
19. The Creed
20. Glory To Thee, O God (from the "Liturgica Domestica", Op.79)
Исполнители:
Feodor Chaliapin Bass

Лог создания рипа

Exact Audio Copy V1.0 beta 6 from 9. April 2015
EAC extraction logfile from 13. July 2015, 22:16
Feodor Chaliapin / Bass Of The Century
Used drive : ATAPI iHES208 2 Adapter: 1 ID: 0
Read mode : Secure
Utilize accurate stream : Yes
Defeat audio cache : Yes
Make use of C2 pointers : No
Read offset correction : 6
Overread into Lead-In and Lead-Out : No
Fill up missing offset samples with silence : Yes
Delete leading and trailing silent blocks : No
Null samples used in CRC calculations : Yes
Used interface : Native Win32 interface for Win NT & 2000
Gap handling : Appended to previous track
Used output format : User Defined Encoder
Selected bitrate : 1024 kBit/s
Quality : High
Add ID3 tag : No
Command line compressor : C:\Program Files (x86)\Exact Audio Copy\Flac\flac.exe
Additional command line options : -V -8 -T "Artist=%artist%" -T "Album=%albumtitle%" -T "Tracknumber=%Tracknr%" -T "Title=%title%" -T "Date=%year%" -T "Genre=%genre%" %source%
TOC of the extracted CD
Track | Start | Length | Start sector | End sector
---------------------------------------------------------
1 | 0:00.32 | 3:52.53 | 32 | 17484
2 | 3:53.10 | 3:51.42 | 17485 | 34851
3 | 7:44.52 | 3:02.00 | 34852 | 48501
4 | 10:46.52 | 3:32.60 | 48502 | 64461
5 | 14:19.37 | 3:17.68 | 64462 | 79304
6 | 17:37.30 | 5:05.42 | 79305 | 102221
7 | 22:42.72 | 4:05.73 | 102222 | 120669
8 | 26:48.70 | 2:57.05 | 120670 | 133949
9 | 29:46.00 | 5:10.30 | 133950 | 157229
10 | 34:56.30 | 4:04.17 | 157230 | 175546
11 | 39:00.47 | 3:55.70 | 175547 | 193241
12 | 42:56.42 | 3:32.18 | 193242 | 209159
13 | 46:28.60 | 2:53.52 | 209160 | 222186
14 | 49:22.37 | 2:02.20 | 222187 | 231356
15 | 51:24.57 | 4:15.63 | 231357 | 250544
16 | 55:40.45 | 3:30.35 | 250545 | 266329
17 | 59:11.05 | 4:04.27 | 266330 | 284656
18 | 63:15.32 | 4:01.33 | 284657 | 302764
19 | 67:16.65 | 4:09.00 | 302765 | 321439
20 | 71:25.65 | 4:15.72 | 321440 | 340636
Track 1
Filename D:\Feodor Chaliapin\(1993) Bass Of The Century\Feodor Chaliapin - Bass Of The Century - 01. La Calunnia E Un Venticello ''Il Barbiere Di Siviglia'' Act I.wav
Pre-gap length 0:00:02.32
Peak level 65.4 %
Extraction speed 1.6 X
Track quality 99.9 %
Test CRC 572FA788
Copy CRC 572FA788
Track not present in AccurateRip database
Copy OK
Track 2
Filename D:\Feodor Chaliapin\(1993) Bass Of The Century\Feodor Chaliapin - Bass Of The Century - 02. You Young Girls Are All Alike (The Miller's Aria) ''Russalka'' Act I.wav
Pre-gap length 0:00:04.05
Peak level 74.9 %
Extraction speed 2.4 X
Track quality 100.0 %
Test CRC E9A292E8
Copy CRC E9A292E8
Track not present in AccurateRip database
Copy OK
Track 3
Filename D:\Feodor Chaliapin\(1993) Bass Of The Century\Feodor Chaliapin - Bass Of The Century - 03. Already The Hour Of My Triumph (Farlaf's Rondo) ''Rusland And Ludmilla'' Act II.wav
Pre-gap length 0:00:03.50
Peak level 84.2 %
Extraction speed 2.4 X
Track quality 100.0 %
Test CRC 0962F3A9
Copy CRC 0962F3A9
Track not present in AccurateRip database
Copy OK
Track 4
Filename D:\Feodor Chaliapin\(1993) Bass Of The Century\Feodor Chaliapin - Bass Of The Century - 04. Un Rat... Le Veau D'Or ''Faust'' Act II.wav
Pre-gap length 0:00:04.05
Peak level 69.0 %
Extraction speed 1.9 X
Track quality 99.9 %
Test CRC 6C2D01F2
Copy CRC 6C2D01F2
Track not present in AccurateRip database
Copy OK
Track 5
Filename D:\Feodor Chaliapin\(1993) Bass Of The Century\Feodor Chaliapin - Bass Of The Century - 05. Vous Qui Faites L'Endormie (Mephistopheles' Serenade) ''Faust'' Act IV.wav
Pre-gap length 0:00:03.67
Peak level 42.4 %
Extraction speed 2.7 X
Track quality 100.0 %
Test CRC 93DBA9D1
Copy CRC 93DBA9D1
Track not present in AccurateRip database
Copy OK
Track 6
Filename D:\Feodor Chaliapin\(1993) Bass Of The Century\Feodor Chaliapin - Bass Of The Century - 06. I Have Attained The Highest Power (Boris's Monologue) ''Boris Godunov'' Act II.wav
Pre-gap length 0:00:04.15
Peak level 68.8 %
Extraction speed 3.1 X
Track quality 100.0 %
Test CRC 162A90E2
Copy CRC 162A90E2
Track not present in AccurateRip database
Copy OK
Track 7
Filename D:\Feodor Chaliapin\(1993) Bass Of The Century\Feodor Chaliapin - Bass Of The Century - 07. Ah! I Am Suffocating (Clock Scene) ''Boris Godunov'' Act II.wav
Pre-gap length 0:00:03.72
Peak level 57.2 %
Extraction speed 3.2 X
Track quality 100.0 %
Test CRC 1CE6EFE6
Copy CRC 1CE6EFE6
Track not present in AccurateRip database
Copy OK
Track 8
Filename D:\Feodor Chaliapin\(1993) Bass Of The Century\Feodor Chaliapin - Bass Of The Century - 08. Prayer Of Boris... ''Boris Godunov'' Act IV.wav
Pre-gap length 0:00:04.10
Peak level 23.7 %
Extraction speed 3.1 X
Track quality 100.0 %
Test CRC 2B5F2E73
Copy CRC 2B5F2E73
Track not present in AccurateRip database
Copy OK
Track 9
Filename D:\Feodor Chaliapin\(1993) Bass Of The Century\Feodor Chaliapin - Bass Of The Century - 09. ...Death Of Boris ''Boris Godunov'' Act IV.wav
Pre-gap length 0:00:00.25
Peak level 74.3 %
Extraction speed 2.7 X
Track quality 99.9 %
Test CRC EE3C1468
Copy CRC EE3C1468
Track not present in AccurateRip database
Copy OK
Track 10
Filename D:\Feodor Chaliapin\(1993) Bass Of The Century\Feodor Chaliapin - Bass Of The Century - 10. The Midnight Review.wav
Pre-gap length 0:00:04.25
Peak level 55.8 %
Extraction speed 3.6 X
Track quality 100.0 %
Test CRC AD27D57B
Copy CRC AD27D57B
Track not present in AccurateRip database
Copy OK
Track 11
Filename D:\Feodor Chaliapin\(1993) Bass Of The Century\Feodor Chaliapin - Bass Of The Century - 11. When The King Went Forth To War.wav
Pre-gap length 0:00:04.12
Peak level 56.4 %
Extraction speed 3.7 X
Track quality 100.0 %
Test CRC 09AB1412
Copy CRC 09AB1412
Track not present in AccurateRip database
Copy OK
Track 12
Filename D:\Feodor Chaliapin\(1993) Bass Of The Century\Feodor Chaliapin - Bass Of The Century - 12. The Song Of The Volga Boatmen (Ei Ukhnem!).wav
Pre-gap length 0:00:04.07
Peak level 51.5 %
Extraction speed 3.7 X
Track quality 100.0 %
Test CRC 314261B0
Copy CRC 314261B0
Track not present in AccurateRip database
Copy OK
Track 13
Filename D:\Feodor Chaliapin\(1993) Bass Of The Century\Feodor Chaliapin - Bass Of The Century - 13. The Song Of The Flea.wav
Pre-gap length 0:00:04.35
Peak level 50.8 %
Extraction speed 3.7 X
Track quality 100.0 %
Test CRC A269FDA6
Copy CRC A269FDA6
Track not present in AccurateRip database
Copy OK
Track 14
Filename D:\Feodor Chaliapin\(1993) Bass Of The Century\Feodor Chaliapin - Bass Of The Century - 14. Down The Petersky.wav
Pre-gap length 0:00:04.12
Peak level 53.4 %
Extraction speed 3.4 X
Track quality 100.0 %
Test CRC 48883FB9
Copy CRC 48883FB9
Track not present in AccurateRip database
Copy OK
Track 15
Filename D:\Feodor Chaliapin\(1993) Bass Of The Century\Feodor Chaliapin - Bass Of The Century - 15. Élégie.wav
Pre-gap length 0:00:04.37
Peak level 60.7 %
Extraction speed 4.0 X
Track quality 100.0 %
Test CRC FF4B65AD
Copy CRC FF4B65AD
Track not present in AccurateRip database
Copy OK
Track 16
Filename D:\Feodor Chaliapin\(1993) Bass Of The Century\Feodor Chaliapin - Bass Of The Century - 16. Black Eyes (Ochi Chorniye).wav
Pre-gap length 0:00:04.03
Peak level 42.3 %
Extraction speed 2.8 X
Track quality 99.9 %
Test CRC 52AAD349
Copy CRC 52AAD349
Track not present in AccurateRip database
Copy OK
Track 17
Filename D:\Feodor Chaliapin\(1993) Bass Of The Century\Feodor Chaliapin - Bass Of The Century - 17. Sten'ka Razin.wav
Pre-gap length 0:00:04.23
Peak level 57.2 %
Extraction speed 3.1 X
Track quality 99.9 %
Test CRC 7F807A32
Copy CRC 7F807A32
Track not present in AccurateRip database
Copy OK
Track 18
Filename D:\Feodor Chaliapin\(1993) Bass Of The Century\Feodor Chaliapin - Bass Of The Century - 18. The Legend Of The Twelve Brigands.wav
Pre-gap length 0:00:03.47
Peak level 59.6 %
Extraction speed 4.3 X
Track quality 100.0 %
Test CRC 60D1E9CE
Copy CRC 60D1E9CE
Track not present in AccurateRip database
Copy OK
Track 19
Filename D:\Feodor Chaliapin\(1993) Bass Of The Century\Feodor Chaliapin - Bass Of The Century - 19. The Creed.wav
Pre-gap length 0:00:04.15
Peak level 60.3 %
Extraction speed 3.3 X
Track quality 99.9 %
Test CRC 4BFD01A0
Copy CRC 4BFD01A0
Track not present in AccurateRip database
Copy OK
Track 20
Filename D:\Feodor Chaliapin\(1993) Bass Of The Century\Feodor Chaliapin - Bass Of The Century - 20. Glory To Thee, O God (from the ''Liturgica Domestica'', Op.79).wav
Pre-gap length 0:00:03.55
Peak level 55.9 %
Extraction speed 3.3 X
Track quality 99.9 %
Test CRC 861D062D
Copy CRC 861D062D
Track not present in AccurateRip database
Copy OK
None of the tracks are present in the AccurateRip database
No errors occurred
End of status report
==== Log checksum 3632FBDEC0493CCC9B91DDECF91E9DC17715CDF7A4E403FB2AB8FD645CA4203F ====

Содержание индексной карты (.CUE)

REM GENRE Vocal
REM DATE 1993
REM DISCID 4111BD14
REM COMMENT "ExactAudioCopy v1.0b6"
CATALOG 0000000000000
PERFORMER "Feodor Chaliapin"
TITLE "Bass Of The Century"
FILE "Feodor Chaliapin - Bass Of The Century - 01. La Calunnia E Un Venticello ''Il Barbiere Di Siviglia'' Act I.wav" WAVE
TRACK 01 AUDIO
TITLE "La Calunnia E Un Venticello 'Il Barbiere Di Siviglia' Act I"
PERFORMER "Feodor Chaliapin"
PREGAP 00:00:32
INDEX 01 00:00:00
TRACK 02 AUDIO
TITLE "You Young Girls Are All Alike (The Miller's Aria) 'Russalka' Act I"
PERFORMER "Feodor Chaliapin"
INDEX 00 03:48:48
FILE "Feodor Chaliapin - Bass Of The Century - 02. You Young Girls Are All Alike (The Miller's Aria) ''Russalka'' Act I.wav" WAVE
INDEX 01 00:00:00
TRACK 03 AUDIO
TITLE "Already The Hour Of My Triumph (Farlaf's Rondo) 'Rusland And Ludmilla' Act II"
PERFORMER "Feodor Chaliapin"
INDEX 00 03:47:67
FILE "Feodor Chaliapin - Bass Of The Century - 03. Already The Hour Of My Triumph (Farlaf's Rondo) ''Rusland And Ludmilla'' Act II.wav" WAVE
INDEX 01 00:00:00
TRACK 04 AUDIO
TITLE "Un Rat... Le Veau D'Or 'Faust' Act II"
PERFORMER "Feodor Chaliapin"
INDEX 00 02:57:70
FILE "Feodor Chaliapin - Bass Of The Century - 04. Un Rat... Le Veau D'Or ''Faust'' Act II.wav" WAVE
INDEX 01 00:00:00
TRACK 05 AUDIO
TITLE "Vous Qui Faites L'Endormie (Mephistopheles' Serenade) 'Faust' Act IV"
PERFORMER "Feodor Chaliapin"
INDEX 00 03:28:68
FILE "Feodor Chaliapin - Bass Of The Century - 05. Vous Qui Faites L'Endormie (Mephistopheles' Serenade) ''Faust'' Act IV.wav" WAVE
INDEX 01 00:00:00
TRACK 06 AUDIO
TITLE "I Have Attained The Highest Power (Boris's Monologue) 'Boris Godunov' Act II"
PERFORMER "Feodor Chaliapin"
INDEX 00 03:13:53
FILE "Feodor Chaliapin - Bass Of The Century - 06. I Have Attained The Highest Power (Boris's Monologue) ''Boris Godunov'' Act II.wav" WAVE
INDEX 01 00:00:00
TRACK 07 AUDIO
TITLE "Ah! I Am Suffocating (Clock Scene) 'Boris Godunov' Act II"
PERFORMER "Feodor Chaliapin"
INDEX 00 05:01:45
FILE "Feodor Chaliapin - Bass Of The Century - 07. Ah! I Am Suffocating (Clock Scene) ''Boris Godunov'' Act II.wav" WAVE
INDEX 01 00:00:00
TRACK 08 AUDIO
TITLE "Prayer Of Boris... 'Boris Godunov' Act IV"
PERFORMER "Feodor Chaliapin"
INDEX 00 04:01:63
FILE "Feodor Chaliapin - Bass Of The Century - 08. Prayer Of Boris... ''Boris Godunov'' Act IV.wav" WAVE
INDEX 01 00:00:00
TRACK 09 AUDIO
TITLE "...Death Of Boris 'Boris Godunov' Act IV"
PERFORMER "Feodor Chaliapin"
INDEX 00 02:56:55
FILE "Feodor Chaliapin - Bass Of The Century - 09. ...Death Of Boris ''Boris Godunov'' Act IV.wav" WAVE
INDEX 01 00:00:00
TRACK 10 AUDIO
TITLE "The Midnight Review"
PERFORMER "Feodor Chaliapin"
INDEX 00 05:06:05
FILE "Feodor Chaliapin - Bass Of The Century - 10. The Midnight Review.wav" WAVE
INDEX 01 00:00:00
TRACK 11 AUDIO
TITLE "When The King Went Forth To War"
PERFORMER "Feodor Chaliapin"
INDEX 00 04:00:05
FILE "Feodor Chaliapin - Bass Of The Century - 11. When The King Went Forth To War.wav" WAVE
INDEX 01 00:00:00
TRACK 12 AUDIO
TITLE "The Song Of The Volga Boatmen (Ei Ukhnem!)"
PERFORMER "Feodor Chaliapin"
INDEX 00 03:51:63
FILE "Feodor Chaliapin - Bass Of The Century - 12. The Song Of The Volga Boatmen (Ei Ukhnem!).wav" WAVE
INDEX 01 00:00:00
TRACK 13 AUDIO
TITLE "The Song Of The Flea"
PERFORMER "Feodor Chaliapin"
INDEX 00 03:27:58
FILE "Feodor Chaliapin - Bass Of The Century - 13. The Song Of The Flea.wav" WAVE
INDEX 01 00:00:00
TRACK 14 AUDIO
TITLE "Down The Petersky"
PERFORMER "Feodor Chaliapin"
INDEX 00 02:49:40
FILE "Feodor Chaliapin - Bass Of The Century - 14. Down The Petersky.wav" WAVE
INDEX 01 00:00:00
TRACK 15 AUDIO
TITLE "Elegie"
PERFORMER "Feodor Chaliapin"
INDEX 00 01:57:58
FILE "Feodor Chaliapin - Bass Of The Century - 15. Elegie.wav" WAVE
INDEX 01 00:00:00
TRACK 16 AUDIO
TITLE "Black Eyes (Ochi Chorniye)"
PERFORMER "Feodor Chaliapin"
INDEX 00 04:11:60
FILE "Feodor Chaliapin - Bass Of The Century - 16. Black Eyes (Ochi Chorniye).wav" WAVE
INDEX 01 00:00:00
TRACK 17 AUDIO
TITLE "Sten'ka Razin"
PERFORMER "Feodor Chaliapin"
INDEX 00 03:26:12
FILE "Feodor Chaliapin - Bass Of The Century - 17. Sten'ka Razin.wav" WAVE
INDEX 01 00:00:00
TRACK 18 AUDIO
TITLE "The Legend Of The Twelve Brigands"
PERFORMER "Feodor Chaliapin"
INDEX 00 04:00:55
FILE "Feodor Chaliapin - Bass Of The Century - 18. The Legend Of The Twelve Brigands.wav" WAVE
INDEX 01 00:00:00
TRACK 19 AUDIO
TITLE "The Creed"
PERFORMER "Feodor Chaliapin"
INDEX 00 03:57:18
FILE "Feodor Chaliapin - Bass Of The Century - 19. The Creed.wav" WAVE
INDEX 01 00:00:00
TRACK 20 AUDIO
TITLE "Glory To Thee, O God (from the 'Liturgica Domestica', Op.79)"
PERFORMER "Feodor Chaliapin"
INDEX 00 04:05:20
FILE "Feodor Chaliapin - Bass Of The Century - 20. Glory To Thee, O God (from the ''Liturgica Domestica'', Op.79).wav" WAVE
INDEX 01 00:00:00



Показать сообщения:    

Текущее время: 05-Дек 07:31

Часовой пояс: UTC + 3


Вы не можете начинать темы
Вы не можете отвечать на сообщения
Вы не можете редактировать свои сообщения
Вы не можете удалять свои сообщения
Вы не можете голосовать в опросах
Вы не можете прикреплять файлы к сообщениям
Вы не можете скачивать файлы