[TR24][OF] Franz Schubert: Complete Works for Violin and Piano, Volume 1 - Julia Fischer, Martin Helmchen - 2009 (Classical)


Статистика раздачи [Обновить пиров]
Размер:  1.07 GB   |    Зарегистрирован:  8 месяцев 15 дней   |    Скачан:  0 раз

Полного источника не было: Никогда

 
   
 
 
 

[Цитировать]

Franz Schubert
Complete Works for Violin and Piano, Vol. 1
Julia Fischer, Martin Helmchen
-Год издания: 2009 | Жанр: Classical
Издатель: PentaTone Classics | Продолжительность: 01:04:30
Наличие сканов: Sleeve, Digital Booklet- -Контейнер: FLAC (*.flac) | Тип рипа: tracks
Разрядность: 24bit / 96kHz | Количество каналов: 2.0
-

Треклист
Franz Schubert (1797-1828)
Sonata for Violin and Piano in D major, D. 384
01.I. Allegro molto (4:11)
02. II. Andante (4:26)
03. III. Allegro Vivace (4:06)
Sonata for Violin and Piano in A minor, D. 385
04. I. Allegro moderato (6:49)
05. II. Andante (7:29)
06. III. Menuetto (Allegro) (2:13)
07. IV. Allegro (4:40)
Sonata for Violin and Piano in G minor, D. 408
08. I. Allegro giusto (4:46)
09. II. Andante (4:44)
10. III. Menuetto (Allegro vivace) (2:29)
11. IV. Allegro moderato (4:09)
Rondo for Violin and Piano in B minor “Rondo Brillant”, D. 895
12. Andante - Allegro (14:29)

О релизе


“It is particularly refreshing that Julia Fischer, one of the younger generation of world’s most promising string players, has not only taken these works to heart, providing a scintillating account of the Rondo Brilliant by way of an encore, but also given them the best possible new lease of life by making a persuasive and invigorating case for their continued promotion and enjoyment among violinists and audiences alike. She is aided in no small measure by the young pianist martin helmchen, who is enjoying a flourishing career as a soloist and also, on the evidence of this new PentaTone release, as an accompanist of stature…..If the second volume in this series is as good, it will be worth the wait." --Richard Evans, International Record Review
“These well-recorded performances by Fischer and Helmchen (I listened to them in stereo mode), as distinctive—in their own way—as those by Andrew Manze, not only provide a pleasant hour of music-making at a very high level but offer what almost amounts to an alternative, cleaned, and restored view of Schubert’s works—one without outré mannerisms or timbres. If this weren’t enough, the volume appears to be Vol. 1 of a complete collection—with the Sonata in A Major and the Fantasy in C apparently on the way. But why wait, since this first volume deserves to be urgently recommended in itself.” --Robert Maxham, Fanfare
“The collaboration with Helmchen is one of seamless understanding and fluidity. Helmchen’s touch is as sensitive and graceful as Fischer’s, and the two together produce an entirely beautiful soundscape filled with moving dynamics, precise articulation, and sublime balance…. PentaTone’s sound is spacious and inviting, and those listening in multichannel mode will enjoy the sensation of sitting right between Fischer and Helmchen.” --Mike D. Brownell, AllMusic
Personnel:
Julia Fischer, violin
Martin Helmchen, piano
Recorded: Concertboerderij Valthermond, The Netherlands, 3-5/1/2009 & 3-5/7/2009

ОтчётыДинамический диапазон

foobar2000 1.3.8 / Dynamic Range Meter 1.1.1
log date: 2015-06-29 01:45:58
--------------------------------------------------------------------------------
Analyzed: Julia Fischer, Martin Helmchen / Schubert: Complete Works for Violin and Piano, Vol. 1
--------------------------------------------------------------------------------
DR Peak RMS Duration Track
--------------------------------------------------------------------------------
DR13 -3.10 dB -23.94 dB 4:11 01-Sonata for Violin and Piano in D major, D. 384 - I. Allegro molto
DR13 -7.87 dB -29.65 dB 4:26 02-Sonata for Violin and Piano in D major, D. 384 - II. Andante
DR14 -5.73 dB -24.78 dB 4:06 03-Sonata for Violin and Piano in D major, D. 384 - III. Allegro Vivace
DR15 -3.80 dB -25.23 dB 6:49 04-Sonata for Violin and Piano in A minor, D. 385 - I. Allegro moderato
DR15 -5.71 dB -27.67 dB 7:29 05-Sonata for Violin and Piano in A minor, D. 385 - II. Andante
DR13 -5.58 dB -22.73 dB 2:13 06-Sonata for Violin and Piano in A minor, D. 385 - III. Menuetto (Allegro)
DR13 -4.79 dB -24.26 dB 4:40 07-Sonata for Violin and Piano in A minor, D. 385 - IV. Allegro
DR15 -5.56 dB -26.70 dB 4:46 08-Sonata for Violin and Piano in G minor, D. 408 - I. Allegro giusto
DR12 -10.39 dB -30.49 dB 4:44 09-Sonata for Violin and Piano in G minor, D. 408 - II. Andante
DR15 -6.30 dB -26.47 dB 2:29 10-Sonata for Violin and Piano in G minor, D. 408 - III. Menuetto (Allegro vivace)
DR14 -4.12 dB -25.86 dB 4:09 11-Sonata for Violin and Piano in G minor, D. 408 - IV. Allegro moderato
DR15 -0.62 dB -19.85 dB 14:29 12-Rondo for Violin and Piano in B minor “Rondo Brillant”, D. 895 - Andante - Allegro
--------------------------------------------------------------------------------
Number of tracks: 12
Official DR value: DR14
Samplerate: 96000 Hz
Channels: 2
Bits per sample: 24
Bitrate: 2483 kbps
Codec: FLAC
================================================================================

Скриншот спектра частот

Доп. информация

При скачивании, если необходимо, переименуйте папку, в которой будет находиться альбомБольшая просьба к скачавшим поддерживать раздачу! Помогайте другим, ведь вам тоже может понадобиться помощь!Не забываем говорить "Спасибо"!Комментарии приветствуются!
Julia Fischer Hi-Res
[teatrix.ru].t21593.torrent 
Торрент: Зарегистрирован [ 2016-03-20 12:40 ] · EBCB3FE60E5FE66FD94231E51C9EB6C6FCE6EE41

Скачать .torrent

Скачать

13 KB

Статус: проверено
Скачан: 0 раз
Размер: 1.07 GB
terms.php



Быстрый ответ

Имя:

      
Для отправки сообщений необходимо включить JavaScript
Показать сообщения:    

Текущее время: 04-Дек 19:21

Часовой пояс: UTC + 3


Вы можете начинать темы
Вы можете отвечать на сообщения
Вы не можете редактировать свои сообщения
Вы не можете удалять свои сообщения
Вы не можете голосовать в опросах
Вы не можете прикреплять файлы к сообщениям
Вы можете скачивать файлы