[TR24][SA] Римский-Корсаков: Шехеразада; Бородин: Половецкие пляски (Князь Игорь); Мусоргский: Танец Персидских Рабов (Хованщина); Глинка: Увертюра (Руслан и Людмила) - Ernest Ansermet, L'Orchestre de la Suisse Romande - 1961-64/2015 (Classical)


Статистика раздачи [Обновить пиров]
Размер:  1.23 GB   |    Зарегистрирован:  8 месяцев 19 дней   |    Скачан:  0 раз

Полного источника не было: Никогда

 
   
 
 
 

[Цитировать]

Rimsky-Korsakov: Scheherazade, Op. 35
Borodin: Polovtsian Dances from "Prince Igor"
Mussorgsky: Dance of The Persian Slaves from "Khovanshchina"
Glinka: Ruslan and Lyudmila - Overture
- Год издания/переиздания диска: 1961-64/2015
Жанр: Classical | Издатель: Decca | Esoteric
Продолжительность: 01:10:08 | Наличие сканов: Sleeve- -L'Orchestre de la Suisse Romande
Ernest Ansermet, conductor
Recorded:
November 1960, Victoria Hall, Geneva [Rimsky-Korsakov, Borodin]
April 1964, Victoria Hall, Geneva [Mussorgsky, Glinka]
-Контейнер: FLAC (*.flac) | Тип рипа: tracks
Разрядность: 24bit / 88.2kHz | Количество каналов: 2.0
-Треклист
Nikolai Rimsky-Korsakov (1844-1908)
Scheherazade, Op. 35
01.I. The Sea and Sinbad's Ship (10:09)
02. II. The Story of the Calender Prince (11:13)
03. III. The Young Prince and the Young Princess (9:39)
04. IV. Festival at Bagdad - The Sea - The Shipwreck against a rock surmounted by a bronze warrior (12:32)
Modest Mussorgsky (1839-1881)
Khovanshchina
05. Dance of the Persian Slaves (7:18)
Mikhail Glinka (1804-1857)
Ruslan and Lyudmila
06. Overture (5:33)
Alexander Borodin (1833-1887)
Prince Igor
07. Dance of the Polovtsian Maidens (2:29)
08. Polovstian Dances (11:14)

О релизе


Classical masterpiece collection
The reissue of classical music masterpieces by ESOTERIC has attracted a lot of attention, both for its uncompromising commitment to recreating the original master sound, and for using hybrid Super Audio CD (SACD) technology to improve sound quality. This series marks the first hybrid SACD release of historical recording selections that have been mainstays of the catalog since their initial release.
ESOTERIC equipment used for re-mastering
These new audio versions feature ESOTERIC’s proprietary re-mastering process to achieve the highest level of sound quality.
Experience by yourself…
Experience the legendary performance in this new Super Audio CD/CD format. Not only for new followers, but also for well experienced followers of these recorded materials. All will be equally impressed by the “soul” hidden within the notes, but never before found in previously released recordings in any format.
Musicians:
Lorand Fenyves, solo violin (1-4)
Choeur des Jeunes, Lausanne (7,8)
Choeur de Radio Lausanne (7,8)
L'Orchestre de la Suisse Romande
Ernest Ansermet, conductor

ОтчётыДинамический диапазон

foobar2000 1.3.8 / Dynamic Range Meter 1.1.1
log date: 2015-06-29 15:19:14
--------------------------------------------------------------------------------
Analyzed: Ernest Ansermet, L'Orchestre de la Suisse Romande / Rimsky-Korsakov: Scheherazade; Borodin: Polovtsian Dances
--------------------------------------------------------------------------------
DR Peak RMS Duration Track
--------------------------------------------------------------------------------
DR12 -3.61 dB -21.45 dB 10:09 01-Scheherazade, Op. 35: I. The Sea and Sinbad's Ship
DR15 -0.05 dB -21.27 dB 11:13 02-Scheherazade, Op. 35: II. The Story of the Calender Prince
DR14 -3.75 dB -24.20 dB 9:39 03-Scheherazade, Op. 35: III. The Young Prince and the Young Princess
DR13 -1.49 dB -20.31 dB 12:32 04-Scheherazade, Op. 35: IV. Festival at Bagdad - The Sea - The Shipwreck against a rock surmounted by a bronze warrior
DR14 -0.01 dB -20.78 dB 7:18 05-Dance of the Persian Slaves from “Khovanshchina”
DR12 -0.97 dB -18.04 dB 5:33 06-Ruslan and Lyudmila: Overture
DR12 -4.84 dB -22.97 dB 2:29 07-Dance of the Polovtsian Maidens from “Prince Igor”
DR12 -2.00 dB -19.87 dB 11:14 08-Polovstian Dances from “Prince Igor”
--------------------------------------------------------------------------------
Number of tracks: 8
Official DR value: DR13
Samplerate: 88200 Hz
Channels: 2
Bits per sample: 24
Bitrate: 2540 kbps
Codec: FLAC
================================================================================

Скриншот спектра частот

Доп. информация

При скачивании, если необходимо, переименуйте папку, в которой будет находиться альбомБольшая просьба к скачавшим поддерживать раздачу! Помогайте другим, ведь вам тоже может понадобиться помощь!Не забываем говорить "Спасибо"!Комментарии приветствуются!
[teatrix.ru].t21595.torrent 
Торрент: Зарегистрирован [ 2016-03-20 12:38 ] · 7A21A1BCD6F1092488111E7CCCF896ED48D818CA

Скачать .torrent

Скачать

14 KB

Статус: проверено
Скачан: 0 раз
Размер: 1.23 GB
terms.php



Быстрый ответ

Имя:

      
Для отправки сообщений необходимо включить JavaScript
Показать сообщения:    

Текущее время: 09-Дек 10:43

Часовой пояс: UTC + 3


Вы можете начинать темы
Вы можете отвечать на сообщения
Вы не можете редактировать свои сообщения
Вы не можете удалять свои сообщения
Вы не можете голосовать в опросах
Вы не можете прикреплять файлы к сообщениям
Вы можете скачивать файлы