[TR24][SA] Richard Strauss: Also sprach Zarathustra - Michel Schwalbé (Schwalbe), Berliner Philharmaoniker & Herbert von Karajan - 1974/2014 (Classical)

DL-List and Torrent activity [Update пиров]
Size:  607 MB   |    Registered:  7 months 6 days   |    Completed:  0 times

Seeder not seen: Never



Richard Strauss
Also sprach Zarathustra
Michel Schwalbé
Berliner Philharmaoniker · Herbert von Karajan
-Год издания/переиздания: 1974/2014 | Жанр: Classical
Издатель: Deutsche Grammophon | Universal Japan
Продолжительность: 00:34:58 | Наличие сканов: Sleeve- -Berliner Philharmaoniker
Herbert von Karajan, conductor
Michel Schwalbé, violin-Контейнер: FLAC (*.flac) | Тип рипа: tracks
Разрядность: 24bit / 88.2kHz | Количество каналов: 2.0-

Richard Strauss (1864-1949)
Also Sprach Zarathustra - Tone Poem For Large Orchestra Op. 30
01.Einleitung (1:52)
02. Von den Hinterweltlern (3:27)
03. Von der grossen Sehnsucht (2:07)
04. Von den Freuden und Leidenschaften (2:05)
05. Das Grablied (2:42)
06. Von der Wissenschaft (4:31)
07. Der Genesende (5:11)
08. Das Tanzlied (7:57)
09. Das Nachtwandlerlied (5:05)

О релизе

"What a surprise for his contemporaries when, following the brilliant tour de force of "Til Eulenspiegel", Richard Strauss decided to write a "Zarathustra" tone poem! A piece of programme music after Friedrich Nietzsche? The poet-philosopher's most celebrated work as a symphonic self-revelation? While Strauss, at that time court conductor in Munich, was still working on "Also sprach Zarathustra" ("freely after Nietzsche") voices critical of the project began to make themselves heard on all sides. Did not even Nietzche's friend Peter Gast protest vigorously? Nevertheless the association of ideas between Zarathustra and music was undoubtedly in the air. Nietzsche had in fact written to the same Gast a decade earlier: "To what category does this "Zarathustra" really belong? I almost believe it belongs among symphonies." - from liner notes
In terms of sheer conductor/composer empathy, this remains 1 of the most perfectly conceived & executed documents ever committed to disc. The links between Also sprach Zarathustra & the Vienna & Berlin Philharmonic orchestras run deep, Strauss himself seeding ideas in 1944 that Karajan took to the moon in 1973. Rarely has a piece been so indelibly associated with orchestral history.
Originally Deutsche Grammophon 1974. Recorded January-March 1973 in Jesus-Christus-Kirche, Berlin. This is the DSD remaster made at the Emil Berliner Studios May 2014.

ОтчётыДинамический диапазон

foobar2000 1.3.8 / Dynamic Range Meter 1.1.1
log date: 2015-06-29 19:18:17
Analyzed: Herbert von Karajan, Berliner Philharmoniker / Richard Strauss: Also Sprach Zarathustra
DR Peak RMS Duration Track
DR10 -2.13 dB -15.85 dB 1:52 01-Also Sprach Zarathustra, op.30 - 1. Einleitung
DR13 -2.15 dB -21.85 dB 3:27 02-Also Sprach Zarathustra, op.30 - 2. Von den Hinterweltlern
DR7 -1.94 dB -15.65 dB 2:07 03-Also Sprach Zarathustra, op.30 - 3. Von der grossen Sehnsucht
DR6 -1.87 dB -10.27 dB 2:05 04-Also Sprach Zarathustra, op.30 - 4. Von den Freuden und Leidenschaften
DR12 -4.61 dB -22.50 dB 2:42 05-Also Sprach Zarathustra, op.30 - 5. Das Grablied
DR12 -1.93 dB -20.89 dB 4:31 06-Also Sprach Zarathustra, op.30 - 6. Von der Wissenschaft
DR7 -1.67 dB -13.99 dB 5:11 07-Also Sprach Zarathustra, op.30 - 7. Der Genesende
DR7 -1.77 dB -14.26 dB 7:57 08-Also Sprach Zarathustra, op.30 - 8. Das Tanzlied
DR11 -1.79 dB -20.14 dB 5:05 09-Also Sprach Zarathustra, op.30 - 9. Das Nachtwandlerlied
Number of tracks: 9
Official DR value: DR9
Samplerate: 88200 Hz
Channels: 2
Bits per sample: 24
Bitrate: 2299 kbps
Codec: FLAC

Скриншот спектра частот

Доп. информация

При скачивании, если необходимо, переименуйте папку, в которой будет находиться альбомБольшая просьба к скачавшим поддерживать раздачу! Помогайте другим, ведь вам тоже может понадобиться помощь!Не забываем говорить "Спасибо"!Комментарии приветствуются!
Torrent: Registered [ 2016-03-20 12:38 ] · C25EA2272C68A01D70532FE2FACC2E47FE29BF34

Download .torrent


13 KB

Status: checked
Completed: 0 times
Size: 607 MB

Quick Reply


Heads necessary to send messages to enable JavaScript
Display posts:    

Current time is: 27-Oct 00:11

All times are UTC + 3

You can post new topics in this forum
You can reply to topics in this forum
You cannot edit your posts in this forum
You cannot delete your posts in this forum
You cannot vote in polls in this forum
You cannot attach files in this forum
You can download files in this forum