(Orchestral) Gustav Mahler - Symphonie Nr.3 (Marilyne Horne • Chicago Symphony Orchestra - James Levine) - 1992, FLAC (image+.cue) lossless


 

[Цитировать]

Levineconducts Mahler
Symphony No.3 in D minor
Chicago Symphony Orchestra
James Levine
--- Жанр: Orchestral
Страна-производитель диска: USA
Год издания диска: 1992
Издатель (лейбл): RCA
Дата записи: 1976
Аудиокодек: FLAC
Тип рипа: image+.cue
Битрейт аудио: lossless
Продолжительность: 1:44'03''
Источник: собственный рип
Наличие сканов в содержимом раздачи: да
Треклист:

CD1

[01] I. Kräftig. Entschieden
[02] II. Tempo di Menuetto. Sehr mässig
[03] III. Comodo; Scherzando; Ohne Hast

Лог создания рипа

Exact Audio Copy V1.0 beta 4 from 7. December 2014
EAC extraction logfile from 6. March 2015, 18:54
Chicago Symphony Orchestra - James Levine / Mahler - Symphony No.3 (CD1)
Used drive : HL-DT-STDVD+-RW GU90N Adapter: 1 ID: 0
Read mode : Secure
Utilize accurate stream : Yes
Defeat audio cache : Yes
Make use of C2 pointers : No
Read offset correction : 102
Overread into Lead-In and Lead-Out : No
Fill up missing offset samples with silence : Yes
Delete leading and trailing silent blocks : No
Null samples used in CRC calculations : Yes
Used interface : Native Win32 interface for Win NT & 2000
Used output format : User Defined Encoder
Selected bitrate : 1024 kBit/s
Quality : High
Add ID3 tag : No
Command line compressor : C:\Program Files (x86)\FLAC\flac.exe
Additional command line options : -T "COMMENT=rip by el coronel" -8 -V %source%
TOC of the extracted CD
Track | Start | Length | Start sector | End sector
---------------------------------------------------------
1 | 0:00.00 | 32:46.33 | 0 | 147482
2 | 32:46.33 | 9:54.42 | 147483 | 192074
3 | 42:41.00 | 18:41.40 | 192075 | 276189
Range status and errors
Selected range
Filename F:\Music\Mahler 3 Levine\CD1.wav
Peak level 80.0 %
Extraction speed 4.7 X
Range quality 99.9 %
Test CRC C51C8074
Copy CRC C51C8074
Copy OK
No errors occurred
AccurateRip summary
Track 1 accurately ripped (confidence 1) [8912F5F5] (AR v2)
Track 2 accurately ripped (confidence 1) [DE49ED2D] (AR v2)
Track 3 accurately ripped (confidence 1) [5DF233A2] (AR v2)
All tracks accurately ripped
End of status report
---- CUETools DB Plugin V2.1.4
[CTDB TOCID: 6sqi8yV5W_T1ppMmw4maJ3bt3ug-] found
Submit result: 6sqi8yV5W_T1ppMmw4maJ3bt3ug- has been confirmed
Track | CTDB Status
1 | (1/1) Accurately ripped
2 | (1/1) Accurately ripped
3 | (1/1) Accurately ripped
==== Log checksum 3736E03845DA39E8B8037B1DDB69FAEFDC813C9269589C83836AC9F52B3AD6F7 ====

Содержание индексной карты (.CUE)

REM GENRE Classical
REM DATE 1976
REM DISCID 2A0E6203
REM COMMENT "ExactAudioCopy v1.0b4"
PERFORMER "Chicago Symphony Orchestra - James Levine"
TITLE "Mahler - Symphony No.3 (CD1)"
FILE "CD1.flac" WAVE
TRACK 01 AUDIO
TITLE "I. Kraftig; Entschieden"
PERFORMER "Chicago Symphony Orchestra - James Levine"
INDEX 01 00:00:00
TRACK 02 AUDIO
TITLE "II. Tempo di Menuetto (sehr massig)"
PERFORMER "Chicago Symphony Orchestra - James Levine"
INDEX 00 32:44:23
INDEX 01 32:46:33
TRACK 03 AUDIO
TITLE "III. Comodo; Scherzando; Ohne Hast"
PERFORMER "Chicago Symphony Orchestra - James Levine"
INDEX 00 42:39:05
INDEX 01 42:41:00

CD2

[01] IV. Sehr langsam; Misterioso
[02] V. Lustig im Tempo und keck im Asdruck
[03] VI. Langsam; Ruhevoll; Empfunden

Лог создания рипа

Exact Audio Copy V1.0 beta 4 from 7. December 2014
EAC extraction logfile from 6. March 2015, 19:31
Chicago Symphony Orchestra - James Levine / Mahler - Symphony No.3 (CD2)
Used drive : HL-DT-STDVD+-RW GU90N Adapter: 1 ID: 0
Read mode : Secure
Utilize accurate stream : Yes
Defeat audio cache : Yes
Make use of C2 pointers : No
Read offset correction : 102
Overread into Lead-In and Lead-Out : No
Fill up missing offset samples with silence : Yes
Delete leading and trailing silent blocks : No
Null samples used in CRC calculations : Yes
Used interface : Native Win32 interface for Win NT & 2000
Used output format : User Defined Encoder
Selected bitrate : 1024 kBit/s
Quality : High
Add ID3 tag : No
Command line compressor : C:\Program Files (x86)\FLAC\flac.exe
Additional command line options : -T "COMMENT=rip by el coronel" -8 -V %source%
TOC of the extracted CD
Track | Start | Length | Start sector | End sector
---------------------------------------------------------
1 | 0:00.00 | 11:42.00 | 0 | 52649
2 | 11:42.00 | 4:03.15 | 52650 | 70889
3 | 15:45.15 | 26:55.45 | 70890 | 192059
Range status and errors
Selected range
Filename F:\Music\Mahler 3 Levine\CD2.wav
Peak level 100.0 %
Extraction speed 4.3 X
Range quality 100.0 %
Test CRC BABC3920
Copy CRC BABC3920
Copy OK
No errors occurred
AccurateRip summary
Track 1 accurately ripped (confidence 6) [F874E547] (AR v2)
Track 2 accurately ripped (confidence 6) [6DC14A74] (AR v2)
Track 3 accurately ripped (confidence 5) [2CDBC1A7] (AR v2)
All tracks accurately ripped
End of status report
---- CUETools DB Plugin V2.1.4
[CTDB TOCID: 3cXxdmTjf52aHEHU1qzlhg1OSiw-] found
Submit result: 3cXxdmTjf52aHEHU1qzlhg1OSiw- has been confirmed
Track | CTDB Status
1 | (5/5) Accurately ripped
2 | (5/5) Accurately ripped
3 | (5/5) Accurately ripped
==== Log checksum 9767DB2292B7F02ED68D8923BE2E6C40E33F714A0542DEE22CF96303B460DA21 ====

Содержание индексной карты (.CUE)

REM GENRE Classical
REM DATE 1976
REM DISCID 210A0003
REM COMMENT "ExactAudioCopy v1.0b4"
PERFORMER "Chicago Symphony Orchestra - James Levine"
TITLE "Mahler - Symphony No.3 (CD2)"
FILE "CD2.flac" WAVE
TRACK 01 AUDIO
TITLE "IV. Sehr langsam; Misterioso"
PERFORMER "Chicago Symphony Orchestra - James Levine"
INDEX 01 00:00:00
TRACK 02 AUDIO
TITLE "V. Lustig im Tempo und keck im Asdruck"
PERFORMER "Chicago Symphony Orchestra - James Levine"
INDEX 00 11:40:63
INDEX 01 11:42:00
TRACK 03 AUDIO
TITLE "VI. Langsam; Ruhevoll; Empfunden"
PERFORMER "Chicago Symphony Orchestra - James Levine"
INDEX 00 15:43:18
INDEX 01 15:45:15
Исполнители:
Marilyne Horne - mezzo-soprano
Chicago Symphony Orchestra - James Levine



Показать сообщения:    

Текущее время: 03-Дек 22:41

Часовой пояс: UTC + 3


Вы не можете начинать темы
Вы не можете отвечать на сообщения
Вы не можете редактировать свои сообщения
Вы не можете удалять свои сообщения
Вы не можете голосовать в опросах
Вы не можете прикреплять файлы к сообщениям
Вы не можете скачивать файлы