Он убил свою семью и пошел в кино / Matou a familia e foi ao cinema (Жулио Брессане / Julio Bressane) [1969, Бразилия, экспериментальная драма, TVRip] Sub Rus + Original Por


Статистика раздачи [Обновить пиров]
Размер:  742 MB   |    Зарегистрирован:  8 месяцев 20 дней   |    Скачан:  1 раз

Полного источника не было: 3 месяца 25 дней

 
   
 
 
 

[Цитировать]

Он убил свою семью и пошел в кино / Matou a familia e foi ao cinema
Страна: Бразилия
Жанр: экспериментальная драма
Год выпуска: 1969
Продолжительность: 01:04:15
Перевод: Субтитры - Kacablanka
Cубтитры: русские
Оригинальная аудиодорожка: португальский

Режиссер: Жулио Брессане / Julio Bressane
В ролях: Марсия Родригез, Рената Сорра, Антеро дэ Оливейра, Ванда Ласэрда, Паоло Падилья, Родольфо Арена
Описание: "Маргинальное кино" - фильмы на темы, касающиеся жизни общественного "дна".
Молодой человек из семьи среднего класса убивает своих родителей бритвой и идет смотреть фильм "Потерянные в любви". Марсинья, богатая и несчастная молодая девушка, воспользовавшись временным отсутствием мужа, отправляется в свой родной дом в Петрополисе, где её навестила давняя подруга, Регина. Вперемежку со сценами, где они танцуют, болтают о мужчинах, заигрывают друг с другом, демонстрируются истории убийств в бедных семьях, среди которых особенно выделяется смертельная пытка политического заключенного.

Качество видео: TVRip
Формат видео: AVI
Видео: 624x480 (1.30:1), 25 fps, XviD build 73 ~1411 kbps avg, 0.19 bit/pixel
Аудио: 48 kHz, AC3 Dolby Digital, 2/0 (L,R) ch, ~192 kbps

Фрагмент субтитров

193
00:42:11,880 --> 00:42:15,270
Можешь представить,
что дуэнья нас застукала?
194
00:42:16,440 --> 00:42:20,115
Марсинья в клетке, вот уже десять лет!
195
00:42:29,400 --> 00:42:30,913
Теперь-то я могу!
196
00:42:32,480 --> 00:42:36,075
Отец всегда запрещал мне
ходить ногами по дивану.
197
00:42:36,240 --> 00:42:40,119
Марсинья, не смей забираться на диван!
198
00:42:42,440 --> 00:42:45,716
Сейчас я хочу сбежать из этого музея!
199
00:42:46,680 --> 00:42:50,559
Марсинья, кланяйся.
Кланяйся, Марсинья.
200
00:42:52,000 --> 00:42:54,355
А ну-ка брысь с дивана!
201
00:42:54,840 --> 00:42:57,877
Ты испачкаешь всю обивку.
202
00:43:54,120 --> 00:43:56,634
Взгляни-ка, что ты наделала!
203
00:43:57,720 --> 00:44:00,712
Как я рада тебя видеть.
Как поживаешь?
204
00:44:00,880 --> 00:44:04,111
Ах, я само благополучие. Только немного
прохладно, немного побаливает голова.
205
00:44:04,320 --> 00:44:06,993
Будь добр, проходи.
Ужин уже готов.
206
00:44:07,160 --> 00:44:10,755
Какой теплый вечерок.
Ступай в комнату.

MediaInfo

Общее
Полное имя : H:\Matou.a.familia.e.foi.ao.cinema.1969.tvrip_[1.46]_[teko]\Matou.a.familia.e.foi.ao.cinema.1969.tvrip_[1.46].avi
Формат : AVI
Формат/Информация : Audio Video Interleave
Размер файла : 742 Мбайт
Продолжительность : 1 ч. 4 м.
Общий поток : 1614 Кбит/сек
Программа кодирования : VirtualDubMod 1.5.10.3 | www.virtualdub-fr.org || (build 2550/release)
Библиотека кодирования : VirtualDubMod build 2550/release
Видео
Идентификатор : 0
Формат : MPEG-4 Visual
Профиль формата : Advanced Simple@L5
Параметр BVOP формата : 2
Параметр QPel формата : Нет
Параметр GMC формата : Без точки перехода
Параметр матрицы формата : Выборочная
Идентификатор кодека : XVID
Идентификатор кодека/Подсказка : XviD
Продолжительность : 1 ч. 4 м.
Битрейт : 1412 Кбит/сек
Ширина : 624 пикселя
Высота : 480 пикселей
Соотношение сторон : 4:3
Частота кадров : 25,000 кадров/сек
Цветовое пространство : YUV
Субдискретизация насыщенности : 4:2:0
Битовая глубина : 8 бит
Тип развёртки : Прогрессивная
Метод сжатия : С потерями
Бит/(Пиксели*Кадры) : 0.189
Размер потока : 649 Мбайт (87%)
Библиотека кодирования : XviD 73
Аудио
Идентификатор : 1
Формат : AC-3
Формат/Информация : Audio Coding 3
Расширение режима : CM (complete main)
Параметр Endianness формата : Big
Идентификатор кодека : 2000
Продолжительность : 1 ч. 4 м.
Вид битрейта : Постоянный
Битрейт : 192 Кбит/сек
Каналы : 2 канала
Расположение каналов : Front: L R
Частота : 48,0 КГц
Битовая глубина : 16 бит
Метод сжатия : С потерями
Размер потока : 88,2 Мбайт (12%)
Выравнивание : Разделение по промежуткам
Продолжительность промежутка : 40 мс. (1,00 видеокадр)
Время предзагрузки промежутка : 500 мс.
[teatrix.ru].t21601.torrent 
Торрент: Зарегистрирован [ 2016-03-20 12:41 ] · ADF487674697065E9D80712387E378428D366633

Скачать .torrent

Скачать

15 KB

Статус: проверено
Скачан: 1 раз
Размер: 742 MB
terms.php



Быстрый ответ

Имя:

      
Для отправки сообщений необходимо включить JavaScript
Показать сообщения:    

Текущее время: 09-Дек 16:33

Часовой пояс: UTC + 3


Вы можете начинать темы
Вы можете отвечать на сообщения
Вы не можете редактировать свои сообщения
Вы не можете удалять свои сообщения
Вы не можете голосовать в опросах
Вы не можете прикреплять файлы к сообщениям
Вы можете скачивать файлы